Киногид извращенца / The Pervert's Guide To Cinema (Софи Файнс / Sophie Fiennes) [2006, Великобритания, философская кинодокументалистика, DVDRip] VO


Статистика раздачи [Обновить пиров]
Размер:  1.96 GB   |    Зарегистрирован:  1 год 1 месяц   |    Скачан:  0 раз

Полного источника не было: Никогда

 
   
 
 
 

[Цитировать]

Киногид извращенца / The Pervert's Guide To Cinema
Страна: Великобритания
Жанр: философская кинодокументалистика
Год выпуска: 2006
Продолжительность: 02.33.13
Перевод: Одноголосый закадровый [Silveus]
Cубтитры: нет
Оригинальная аудиодорожка: нет
Режиссер: Софи Файнс / Sophie Fiennes
В ролях: Славой Жижек
Описание: Этот фильм - не просто кинопутешествие Жижека, это даже не просто экспликация и экранизация ходов Жижека, знакомых по его книгам. Это большее - кинофилософия в чистом виде, философия, наконец-таки заговорившая языком кино. Разумеется, и до этого были попытки свести философию и кино, но все они скатывались то в одно, то в другое. Уверен, что этот фильм - как раз третье, Жижек здесь предстает не просто как автор концепции, но скорее как голос-образ, ставший вровень с кинообразами и вступающий с ними в диалог.
Фильм разбит на три части. Первая работает с процедурами структурирования реальности, прежде всего посредством троицы "Оно - Я - Сверх-я"; вторая раскрывает тему фантазии и сексуальности; третья рассматривает проблему реальности и иллюзии.
Части равные по объему, но разные по интеллектуальному накалу. Первая больше походит на набрасывание понятий, на философскую констелляцию и на ведение и приручение к дискурсу. Вторая скорее выглядит как работа с "мальчиком для битья", на котором ставят удары, отрабатывают приемы, изучают типы реакций от проделанных с ним опытов. Третья - это работа с границей иллюзии и реальности, когда все шутки оставлены в стороне, поскольку на кон поставлена сама реальность... (artemkino)
Доп. информация: Славой Жижек (р. 1949) – ведущий философ, психоаналитик, публицист и исследователь гуманитарной культуры 90-00-х гг. Живет в Любляне, Словения. Блестящий критик многочисленных мифов современности, крупная медийная фигура и суперзвезда, икона интеллектуалов, постоянный участник как популярных телевизионных ток-шоу, так и многочисленных научных конференций. Начинал в 70-е переводчиком и популяризатором наследия Жака Лакана, постепенно превратившись в наиболее известного интерпретатора его подчас весьма эзотерических текстов. Своеобразно сочетает лаканианство с по-марксистски прочитанным Гегелем. Чрезвычайно плодовит. Последнее десятилетие в многочисленных книгах и выступлениях все чаще обращается к опыту левого движения и социализма. Имеет редкий дар развязывать сложные философские узлы при помощи артефактов масскульта и явлений повседневности. Часто иллюстрирует те или иные психоаналитические положения, анализируя произведения кинематографа. Редкий текст Жижека обходится без анализа каких-нибудь фильмов.
«Кино – последнее из извращенных искусств. Оно не даст вам того, чего вы желаете. Оно расскажет о том, как желать», - говорит Славой Жижек. В документальном фильме «Гид киноизвращенца» Жижек предлагает собственный, яркий, остроумный, страстный и неожиданный анализ любимых фильмов, соединяя философию и психоанализ. Режиссер помещает Жижека в тщательно воссозданные декорации известных лент – спальню из «Экзорциста», космическое пространство из «Соляриса», городок Бодега Бэй из «Птиц»… И изнутри этих фильмов философ вызывает в нашем воображении чудные метафоры. Так, например, стоя в воссозданных декорациях сада из «Голубого бархата» Линча он замечает, как отвратительны тюльпаны: «Это неприкрытое приглашение насекомым: пожалуйста, трахните меня!».
Сексуальный подтекст – любимая тема Жижека: фильм «Персона» содержит самую эротическую сцену мирового кино, а «Пианистка» Ханеке – самую депрессивную. А, например, «Широко закрытые глаза» - это образец «полной импотенции мужского воображения»: «Сексуальность – это всегда не только я и мой партнер. Должен быть кто-то третий, воображаемый, кто позволяет мне заниматься сексом».
Режиссер Софи Файнс - дочь фотографа Марка Файнса и писательницы и художницы Джини Файнс, сестра знаменитых британских актеров Ральфа и Джозефа Файнсов. В течение 5 лет, с 1987 по 1992 гг ассистировала Питеру Гринуэю. В 1999 г. сняла свой первый короткометражный фильм «Ларс по пунктам» (Lars from 1-10), в котором Ларс фон Триер объясняет зрителям принципы своей ДОГМЫ-95. Работала на телевидении. Снялась в эпизодической роли в фильме «Онегин» (Onegin, 1999). Первым полнометражным неигровым фильмом стала картина "Hoover Street Revival" (2002), посвященная госпел-музыке в южном Лос-Анджелесе. (Ф.Кукин)
И ещё:
В фильме упоминаются/разбираются кинофрагменты фильмов А.Хичкока, Ф.Ланга, Ч.Чаплина, Д.Линча, А.Тарковского, С.Кубрика, Д.Финчера, М.Ханеке, И.Бергмана, Л. фон Триера, С.Эйзенштейна и других.
Сэмпл: http://rusfolder.com/42157031
Качество видео: DVDRip
Формат видео: AVI
Видео: 640x320, XVID, 25,000 frm/s, 1626 kbit/s
Аудио: MPEG1 Layer 3 (MP3), 48000 Hz, 192 kbit/s, stereo

MediaInfo

General
Complete name : Киногид извращенца.avi
Format : AVI
Format/Info : Audio Video Interleave
File size : 1.96 GiB
Duration : 2h 33mn
Overall bit rate : 1 827 Kbps
Writing application : MEncoder SVN-r33883(20110719-gcc4.5.2)
Writing library : VirtualDub build 35491/release
Video
ID : 0
Format : MPEG-4 Visual
Format profile : Advanced Simple@L5
Format settings, BVOP : 2
Format settings, QPel : No
Format settings, GMC : No warppoints
Format settings, Matrix : Default (H.263)
Codec ID : XVID
Codec ID/Hint : XviD
Duration : 2h 33mn
Bit rate : 1 626 Kbps
Width : 640 pixels
Height : 320 pixels
Display aspect ratio : 2.000
Frame rate : 25.000 fps
Color space : YUV
Chroma subsampling : 4:2:0
Bit depth : 8 bits
Scan type : Progressive
Compression mode : Lossy
Bits/(Pixel*Frame) : 0.317
Stream size : 1.74 GiB (89%)
Writing library : XviD 73
Audio
ID : 1
Format : MPEG Audio
Format version : Version 1
Format profile : Layer 3
Mode : Joint stereo
Codec ID : 55
Codec ID/Hint : MP3
Duration : 2h 33mn
Bit rate mode : Constant
Bit rate : 192 Kbps
Channel(s) : 2 channels
Sampling rate : 48.0 KHz
Compression mode : Lossy
Stream size : 210 MiB (11%)
Alignment : Split accross interleaves
Interleave, duration : 40 ms (1.00 video frame)
Interleave, preload duratio : 500 ms
Writing library : LAME3.98.4

Скриншоты

[teatrix.ru].t4337.torrent 
Торрент: Зарегистрирован [ 2015-10-07 20:05 ] · 519B72EB2B6088550E03CDF9073BE5F637C51B82

Скачать .torrent

Скачать

20 KB

Статус: проверено
Скачан: 0 раз
Размер: 1.96 GB
terms.php



Быстрый ответ

Имя:

      
Для отправки сообщений необходимо включить JavaScript
Показать сообщения:    

Текущее время: 05-Дек 07:30

Часовой пояс: UTC + 3


Вы можете начинать темы
Вы можете отвечать на сообщения
Вы не можете редактировать свои сообщения
Вы не можете удалять свои сообщения
Вы не можете голосовать в опросах
Вы не можете прикреплять файлы к сообщениям
Вы можете скачивать файлы