Кино-Правда №21. Ленинская киноправда. Кинопоэма о Ленине / Kino-pravda no. 21 - Leninskaia Kino-pravda. Kinopoema o Lenine (Дзига Вертов) [1925, СССР, Документальный, хроника, короткометражный, немое, HDRip]


Статистика раздачи [Обновить пиров]
Размер:  395 MB   |    Зарегистрирован:  1 год 1 месяц   |    Скачан:  0 раз

Полного источника не было: Никогда

 
   
 
 
 

[Цитировать]

Кино-Правда №21. Ленинская киноправда. Кинопоэма о Ленине / Kino-pravda no. 21 - Leninskaia Kino-pravda. Kinopoema o Lenine
Жанр: Документальный, хроника, короткометражный, немое кино
Страна: СССР
Студия: Культкино
Год выпуска: 1925
Продолжительность: 00:23:16.272 (33477 frames)
Режиссер: Дзига Вертов
Описание: Выпуск «Киноправды», подготовленный к годовщине смерти В.И. Ленина.
В «Ленинской киноправде» Дзига Вертов объединил хроникальные кадры Ильича и документальные съёмки из жизни страны и, организовав материал по трем темам - «дело Ленина, похороны Ленина, Ленин жив», создал образно-публицистический триптих, патетически утверждающий торжество Революции и ленинских идей.
Дополнительная информация: Релиз:
Автор рипа: pmv
Исходник найден в сети.
Большое спасибо за:
- звуковую дорожку с музыкой Шостаковича (http://rutracker.org/forum/viewtopic.php?t=1777035) - Wopolk
IMDb = 6,4/10 from 79 users - http://www.imdb.com/title/tt0015977/
Кинопоиск = - (8) - http://www.kinopoisk.ru/film/818378/
* Интертитры к фильму рисовал Александр Родченко.
* Первая аудиодорожка с музыкальным сопровождением взята с исходника.
* Вторая дорожка - в звуковом оформлении использована музыка Дмитрия Шостаковича.
ПРОСЬБА к СКАЧАВШИМ. НЕ УХОДИТЕ С РАЗДАЧИ, ПОМОГИТЕ ДРУГИМ СКАЧАТЬ!!!
Качество видео: HDRip
Формат видео: AVI
Видео: 720x528 (1.36:1), 23.976 fps, XviD build 73 ~1973 kbps avg, 0.22 bit/pixel
Аудио #1: 48 kHz, AC3 Dolby Digital, 2/0 (L,R) ch, ~256.00 kbps avg – аудио с исходника
Аудио #2: 44.100 kHz, MPEG Layer 3, 2 ch, ~128.00 kbps avg – аудио с музыкой Шостаковича

MediaInfo

General
Complete name : D:\torrents\ Kino-pravda no. 21 - Leninskaia Kino-pravda. Kinopoema o Lenine - 1925 - Dziga Vertov.avi
Format : AVI
Format/Info : Audio Video Interleave
File size : 395 MiB
Duration : 23mn 16s
Overall bit rate : 2 372 Kbps
Writing application : VirtualDubModRus 1.5.10.2 (build 2542/release)
Writing library : VirtualDubMod build 2542/release
Video
ID : 0
Format : MPEG-4 Visual
Format profile : Advanced Simple@L5
Format settings, BVOP : Yes
Format settings, QPel : No
Format settings, GMC : No warppoints
Format settings, Matrix : Default (H.263)
Codec ID : XVID
Codec ID/Hint : XviD
Duration : 23mn 16s
Bit rate : 1 974 Kbps
Width : 720 pixels
Height : 528 pixels
Display aspect ratio : 4:3
Frame rate : 23.976 fps
Resolution : 8 bits
Colorimetry : 4:2:0
Scan type : Progressive
Bits/(Pixel*Frame) : 0.217
Stream size : 329 MiB (83%)
Writing library : XviD 73
Audio #1
ID : 1
Format : AC-3
Format/Info : Audio Coding 3
Codec ID : 2000
Duration : 23mn 16s
Bit rate mode : Constant
Bit rate : 256 Kbps
Channel(s) : 2 channels
Channel positions : Front: L R
Sampling rate : 48.0 KHz
Video delay : 28ms
Stream size : 42.6 MiB (11%)
Alignment : Split accross interleaves
Interleave, duration : 42 ms (1.00 video frame)
Interleave, preload duration : 500 ms
Audio #2
ID : 2
Format : MPEG Audio
Format version : Version 1
Format profile : Layer 3
Codec ID : 55
Codec ID/Hint : MP3
Duration : 23mn 16s
Bit rate mode : Constant
Bit rate : 128 Kbps
Channel(s) : 2 channels
Sampling rate : 44.1 KHz
Video delay : 26ms
Stream size : 21.3 MiB (5%)
Alignment : Split accross interleaves
Interleave, duration : 42 ms (1.00 video frame)
Interleave, preload duration : 500 ms

Скриншот c названием фильма

Сравнение с раздачей Wopolk от 21-Апреля-2009

Wopolk, VHSRip, 6400 x 480, 329 Mb < > CaCa48, HDRip, 720 х 528, 395 Mb
http://rutracker.org/forum/viewtopic.php?t=1777035
http://screenshotcomparison.com/comparison/135496/
МОИ РАЗДАЧИ НА РУТРЕКЕРЕ: http://rutracker.org/forum/tracker.php?rid=27390064
[teatrix.ru].t4338.torrent 
Торрент: Зарегистрирован [ 2015-10-07 20:05 ] · 366C6F8BE47D15568250CFE7942111403525095E

Скачать .torrent

Скачать

16 KB

Статус: проверено
Скачан: 0 раз
Размер: 395 MB
terms.php



Быстрый ответ

Имя:

      
Для отправки сообщений необходимо включить JavaScript
Показать сообщения:    

Текущее время: 03-Дек 18:39

Часовой пояс: UTC + 3


Вы можете начинать темы
Вы можете отвечать на сообщения
Вы не можете редактировать свои сообщения
Вы не можете удалять свои сообщения
Вы не можете голосовать в опросах
Вы не можете прикреплять файлы к сообщениям
Вы можете скачивать файлы