Я симпатичный и популярный человек / I Am Secretly an Important Man (Питер Силлен / Peter Sillen) [2010, США, документальный, биографический, авангард, DVB-AVC] DVO (Kino Polska) + Original (Eng)


Статистика раздачи [Обновить пиров]
Размер:  737 MB   |    Зарегистрирован:  1 год 1 месяц   |    Скачан:  0 раз

Полного источника не было: Никогда

 
   
 
 
 

[Цитировать]

Я симпатичный и популярный человек
I Am Secretly an Important Man- Страна: США
Жанр: документальный, биографический, авангард
Год выпуска: 2010
Продолжительность: 01:25:28Перевод: Профессиональный (двухголосый закадровый) по заказу Kino Polska на производственно-технической базе Студии "Акцент"
Cубтитры: нет
Оригинальная аудиодорожка: английский
Режиссер: Питер Силлен / Peter Sillen
В ролях: Стивен Бернстейн / Steven J. Bernstein (Jesse Bernstein)
Описание: Фильм-портрет американского андеграундного писателя еврейского происхождения Стивена Бернстейна (1950-1991), писавшего под псевдонимом Джесси Бернстейн, одного из самых знаменитых голосов Сиэтла. Его гневные и удивительно свежие лирические произведения о раненых душах, бродягах и наркоманах, изгоях общества, освещают жизнь на краю человеческого восприятия реальности. Его уникальный ритм, наполненный юмором и болью, особо захватывал окружающих, когда звучал в его собственном исполнении. Развившиеся алкоголизм и токсикомания, как и прогрессирующее психическое заболевание, способствовали его скандальной известности, но, в конце концов, привели к трагическому исходу – самоубийству. В фильме использованы записи независимой сиэтлской студии звукозаписи Sub Pop, произведенные им вместе с Уильямом Берроузом.
Доп. информация: Filmbox Arthouse IPTV. На территории РФ возрастное ограничение 18+.
Награды: приз за лучший документальный фильм SXSW Film Festival 2010; номинация на аудиовизуальную награду CPH:DOX 2010.

Качество видео: DVB-AVC
Формат видео: MKV
Видео: AVC (H.264), 720x576@1024x576 (16:9), 25 fps, ~925 kbps avg, 0.089 bit/pixel
Аудио 1: MPEG Audio 2, 2 ch, 48 kHz, ~128.00 kbps avg - русский
Аудио 2: MPEG Audio 2, 2 ch, 48 kHz, ~128.00 kbps avg - английский

MediaInfo

[pre]Общее
Уникальный идентификатор : 237147692560331880664722231429651948715 (0xB268FBF6C99868B382BD3E0DBE66E4AB)
Полное имя : F:\My Torrents 3\[apreder]I_Am_Secretly_an_Important_Man(2010)DVB.mkv
Формат : Matroska
Версия формата : Version 2
Размер файла : 737 Мбайт
Продолжительность : 1 ч. 25 м.
Общий поток : 1205 Кбит/сек
Дата кодирования : UTC 2015-07-11 13:12:03
Программа кодирования : mkvmerge v8.1.0 ('Psychedelic Postcard') 64bit
Библиотека кодирования : libebml v1.3.1 + libmatroska v1.4.2
Attachements : cover.jpg / cover_small.jpg
Видео
Идентификатор : 1
Формат : AVC
Формат/Информация : Advanced Video Codec
Профиль формата : Main@L3
Параметр CABAC формата : Да
Параметр ReFrames формата : 3 кадра
Параметр GOP формата : M=4, N=32
Идентификатор кодека : V_MPEG4/ISO/AVC
Продолжительность : 1 ч. 25 м.
Битрейт : 925 Кбит/сек
Ширина : 720 пикселей
Высота : 576 пикселей
Соотношение сторон : 16:9
Соотношение сторон в оригинале : 16:9
Режим частоты кадров : Постоянный
Частота кадров : 25,000 кадров/сек
Стандарт вещания : Component
Цветовое пространство : YUV
Субдискретизация насыщенности : 4:2:0
Битовая глубина : 8 бит
Тип развёртки : Чересстрочная
Порядок развёртки : Верхнее поле первое
Бит/(Пиксели*Кадры) : 0.089
Размер потока : 565 Мбайт (77%)
Default : Да
Forced : Нет
colour_range : Limited
Основные цвета : BT.601 PAL
Характеристики трансфера : BT.470 System B, BT.470 System G
Коэффициенты матрицы : BT.601
Аудио #1
Идентификатор : 2
Формат : MPEG Audio
Версия формата : Version 1
Профиль формата : Layer 2
Идентификатор кодека : A_MPEG/L2
Идентификатор кодека/Подсказка : MP2
Продолжительность : 1 ч. 25 м.
Вид битрейта : Постоянный
Битрейт : 128 Кбит/сек
Каналы : 2 канала
Частота : 48,0 КГц
Метод сжатия : С потерями
Задержка видео : -79 мс.
Размер потока : 78,3 Мбайт (11%)
Язык : Russian
Default : Нет
Forced : Нет
Аудио #2
Идентификатор : 3
Формат : MPEG Audio
Версия формата : Version 1
Профиль формата : Layer 2
Идентификатор кодека : A_MPEG/L2
Идентификатор кодека/Подсказка : MP2
Продолжительность : 1 ч. 25 м.
Вид битрейта : Постоянный
Битрейт : 128 Кбит/сек
Каналы : 2 канала
Частота : 48,0 КГц
Метод сжатия : С потерями
Задержка видео : -79 мс.
Размер потока : 78,3 Мбайт (11%)
Язык : English
Default : Да
Forced : Нет

Скриншот c названием фильма

Скриншоты


Резервные скриншоты


-[2'453]
[teatrix.ru].t4339.torrent 
Торрент: Зарегистрирован [ 2015-10-07 20:05 ] · 3BD0B8EA3A904065A864B4279FCF3C88DCFD5B0F

Скачать .torrent

Скачать

15 KB

Статус: проверено
Скачан: 0 раз
Размер: 737 MB
terms.php



Быстрый ответ

Имя:

      
Для отправки сообщений необходимо включить JavaScript
Показать сообщения:    

Текущее время: 04-Дек 17:13

Часовой пояс: UTC + 3


Вы можете начинать темы
Вы можете отвечать на сообщения
Вы не можете редактировать свои сообщения
Вы не можете удалять свои сообщения
Вы не можете голосовать в опросах
Вы не можете прикреплять файлы к сообщениям
Вы можете скачивать файлы