Токио-га / Tokyo-Ga (Вим Вендерс / Wim Wenders) [1985, США, Германия (ФРГ), Документальный, DVD9 (Custom)] VO + Sub Eng, Esp, Ital, Rus + Original Eng / Criterion Collection#331


Статистика раздачи [Обновить пиров]
Размер:  5.57 GB   |    Зарегистрирован:  1 год 1 месяц   |    Скачан:  1 раз

Полного источника не было: 4 месяца 6 дней

 
   
 
 
 

[Цитировать]

Токио-га / Tokyo-Ga / Criterion Collection#331 Диск 2 -Страна: ЯпонияСтудия: Chris Sievernich Filmproduktion, Gray City, Westdeutscher Rundfunk (WDR), Wim Wenders Productions.Жанр: Документальный
Год выпуска: 1985
Продолжительность: 01:31:50
Производитель: The Criterion Collection #331
Перевод: Профессиональный (одноголосый)
Cубтитры: Английские, Испанские, Итальянские, Русские
Оригинальная аудиодорожка: Английский
Премьера (мир): 24.04.1985
Режиссер: Вим Вендерс / Wim WendersВ ролях:Тисю Рю — в роли самого себя
Вернер Херцог — в роли самого себя
Юухару Ацута — в роли самого себя
Крис Маркер — в роли самого себя

Описание

«Токио-Га» — это фильм о том, что изменилось, а что осталось от того Токио, в котором с 1903 по 1963 года жил и творил режиссер Ясудзиро Одзу. После отрывка из фильма Одзу, с которого начинается «Токио-Га», Вендерс открывает глаза.
В сомнамбулическом состоянии Вендерс бродит по Токио и снимает все, как во сне. Его занимают технические моменты, которые отличаются от Европы: телевизоры в такси, карты метро, где все линии мигают и переливаются разными … И вдруг в метро его блуждающий взгляд останавливается на мальчике, который в сутолоке и толчее упирается изо всех сил и не хочет никуда идти. Он поджимает ножки и виснет на руке матери, которая тщетно пытается заставить его вести себя прилично.
Именно этот мальчик неожиданно вернул Вендерсу ясность зрения — он напомнил ему, зачем он сюда приехал и о чем хотел снять свой фильм. В этом мальчике Вендерс увидел одного из тех бесчисленных непослушных мальчуганов, которые так часто появлялись в фильмах Одзу. С этого момента Вендерс, по его собственным словам, «доверился городу». И город ответил ему взаимностью и стал показывать свои картины, которые Вендерс благодарно, подробно и неторопливо снимает.
Доп. информация:Исходник найден в сети.Профессиональный (одноголосый).Русские субтитрыРеавторинг Нордер.Огромное Спасибо Всем, без чьей помощи этот релиз не состоялся бы!Сценарий:Вим ВендерсПродюсер:Крис Сивернич, Вим ВендерсОператор:Эдвард ЛахманКомпозитор:Лоран ПетиганМонтаж:Сольвейг Доммартин, Джон Нойбургер, Вим Вендерс

Рецензия

Софт

PGCDemux (извлечение).
BeSweet, Sony Vegas 9 (звук).
DVD-lab PRO 2, Subtitle Workshop (субтитры).
MuxMan (сборка). DvdReMakePro (финал).

Бонусы: (Без перевода)

Tokyo-ga (1985), filmmaker Wim Wenders’s ninety-two-minute documentary about director Yasujiro Ozu
Меню: Английский, анимированное, озвученное.Сэмпл: http://multi-up.com/1056968
Тип релиза: DVD9(Custom)
Контейнер: DVD-Video
Видео: NTSC 4:3 (720x480) VBR, 7852 Кбит/сек, 23,976 кадра/сек
Аудио 1: Русский: AC3, 2 ch, 48.0 KHz, 192 Кбит/сек / Профессиональный (одноголосый)Аудио 2: Английский: AC3, 1 ch, 48.0 KHz, 192 Кбит/сек / ОригиналФормат субтитров: prerendered (DVD/IDX+SUB)

Dvd Info

Title: Tokyo-Ga DVD-9_Custom_Criterion#331
Size: 5.57 Gb ( 5 838 738,00 KBytes ) - DVD-9
Enabled regions: 1, 2, 3, 4, 5, 6, 7, 8
VTS_01 :
Play Length: 00:00:00
Video: NTSC 4:3 (720x480) VBR
VTS_02 :
Play Length: 01:31:50
Video: NTSC 4:3 (720x480) VBR
Audio:
Russian (Dolby AC3, 2 ch)
English (Dolby AC3, 2 ch)
Subtitles:
English
Espanol
Italiano
Russian
VTS_03 :
Play Length: 00:00:00
Video: NTSC 4:3 (720x480) VBR

Mediainfo

Общее
Полное имя: F:\Tokyo-Ga DVD-9_Custom_Criterion#331\VIDEO_TS\VTS_02_2.VOB
Формат : MPEG-PS
Размер файла : 1024 Мбайт
Продолжительность : 17 м.
Режим общего битрейта : Переменный
Общий поток : 8404 Кбит/сек
Видео
Идентификатор : 224 (0xE0)
Формат : MPEG Video
Версия формата : Version 2
Профиль формата : Main@Main
Параметр BVOP формата : Да
Параметр матрицы формата : Выборочная
Параметр GOP формата : M=3, N=12
Продолжительность : 17 м.
Вид битрейта : Переменный
Битрейт : 7852 Кбит/сек
Максимальный битрейт : 9608 Кбит/сек
Ширина : 720 пикселей
Высота : 480 пикселей
Соотношение сторон : 4:3
Частота кадров : 23,976 кадра/сек
Цветовое пространство : YUV
Субдискретизация насыщенности : 4:2:0
Битовая глубина : 8 бит
Тип развёртки : Прогрессивная
Порядок развёртки : 2:3 Pulldown
Метод сжатия : С потерями
Бит/(Пиксели*Кадры) : 0.948
Временной код первого кадра : 01:17:34:04
Оригинал временного кода : Group of pictures header
GOP, открыто/закрыто : Открыто
Размер потока : 957 Мбайт (93%)
Аудио #1
Идентификатор : 189 (0xBD)-128 (0x80)
Формат : AC-3
Формат/Информация : Audio Coding 3
Расширение режима : CM (complete main)
Параметр Endianness формата : Big
Режим смешивания : DVD-Video
Продолжительность : 17 м.
Вид битрейта : Постоянный
Битрейт : 192 Кбит/сек
Каналы : 2 канала
Расположение каналов : Front: L R
Частота : 48,0 КГц
Метод сжатия : С потерями
Задержка видео : -489 мс.
Размер потока : 23,4 Мбайт (2%)
Аудио #2
Идентификатор : 189 (0xBD)-129 (0x81)
Формат : AC-3
Формат/Информация : Audio Coding 3
Профиль формата : Dolby Digital
Расширение режима : CM (complete main)
Параметр Endianness формата : Big
Режим смешивания : DVD-Video
Продолжительность : 17 м.
Вид битрейта : Постоянный
Битрейт : 192 Кбит/сек
Каналы : 2 канала
Расположение каналов : Front: L R
Частота : 48,0 КГц
Метод сжатия : С потерями
Задержка видео : -489 мс.
Размер потока : 23,4 Мбайт (2%)
Текст #1
Идентификатор : 189 (0xBD)-33 (0x21)
Формат : RLE
Формат/Информация : Run-length encoding
Режим смешивания : DVD-Video
Текст #2
Идентификатор : 189 (0xBD)-34 (0x22)
Формат : RLE
Формат/Информация : Run-length encoding
Режим смешивания : DVD-Video
Текст #3
Идентификатор : 189 (0xBD)-35 (0x23)
Формат : RLE
Формат/Информация : Run-length encoding
Режим смешивания : DVD-Video

Скриншоты меню

Скриншоты

[teatrix.ru].t4340.torrent 
Торрент: Зарегистрирован [ 2015-10-07 20:05 ] · E8CCE4491213CECF485034F83637ABFF588A09A6

Скачать .torrent

Скачать

29 KB

Статус: проверено
Скачан: 1 раз
Размер: 5.57 GB
terms.php



Быстрый ответ

Имя:

      
Для отправки сообщений необходимо включить JavaScript
Показать сообщения:    

Текущее время: 03-Дек 12:40

Часовой пояс: UTC + 3


Вы можете начинать темы
Вы можете отвечать на сообщения
Вы не можете редактировать свои сообщения
Вы не можете удалять свои сообщения
Вы не можете голосовать в опросах
Вы не можете прикреплять файлы к сообщениям
Вы можете скачивать файлы