Среда 19.07.1961 / Wednesday (Виктор Косаковский) [1997, Германия, Россия, Великобритания, Финляндия, Дания, документальный, TVRip]


Статистика раздачи [Обновить пиров]
Размер:  697 MB   |    Зарегистрирован:  1 год 1 месяц   |    Скачан:  0 раз

Полного источника не было: Никогда

 
   
 
 
 

[Цитировать]

Среда 19.07.1961 / Wednesday
Страна: Германия, Россия, Великобритания, Финляндия, Дания
Жанр: Документальный
Год выпуска: 1997
Продолжительность: 01:29:35
Перевод: Не требуется
Cубтитры: нет
Режиссер: Виктор Косаковский
В ролях: Люди, рожденные 19 июля 1961 года в Ленинграде.
Описание: Фильм, состоящий из семидесяти микро-сюжетов о судьбах питерских жителей, которые родились с режиссером в один день.
Доп. информация:
Журнал «Искусство кино», 1998, №1, январь
Файл скачал с KG (спасибо belatarr)
Сэмпл
Качество видео: TVRip
Формат видео: AVI
Видео: DX50/divx DivX 5.0 352x288 (1.22:1) [=11:9] 953 kb/s 25.000 0.376 bits/pixel
Аудио: 128 kb/s (64/ch, stereo) CBR

MediaInfo

Format : DivX
Format/Info : Hack of AVI
File size : 697 MiB
Duration : 1h 29mn
Overall bit rate : 1 087 Kbps
Video
ID : 0
Format : MPEG-4 Visual
Format settings, BVOP : No
Format settings, QPel : No
Format settings, GMC : No warppoints
Format settings, Matrix : Default (H.263)
Codec ID : DX50
Codec ID/Hint : DivX 5
Duration : 1h 29mn
Bit rate : 949 Kbps
Width : 352 pixels
Height : 288 pixels
Display aspect ratio : 1.222
Frame rate : 25.000 fps
Standard : PAL
Color space : YUV
Chroma subsampling : 4:2:0
Bit depth : 8 bits
Scan type : Progressive
Compression mode : Lossy
Bits/(Pixel*Frame) : 0.375
Stream size : 608 MiB (87%)
Writing library : DivX 1586
Audio
ID : 1
Format : MPEG Audio
Format version : Version 1
Format profile : Layer 3
Codec ID : 55
Codec ID/Hint : MP3
Duration : 1h 29mn
Bit rate mode : Constant
Bit rate : 128 Kbps
Channel(s) : 2 channels
Sampling rate : 48.0 KHz
Compression mode : Lossy
Stream size : 82.0 MiB (12%)
Alignment : Split accross interleaves
Interleave, duration : 40 ms (1.00 video frame)
Interleave, preload duration : 500 ms
[teatrix.ru].t4346.torrent 
Торрент: Зарегистрирован [ 2015-10-07 20:05 ] · D4A7E44F9B64B4C83BA906CF37D9C00212081C6F

Скачать .torrent

Скачать

14 KB

Статус: проверено
Скачан: 0 раз
Размер: 697 MB
terms.php



Быстрый ответ

Имя:

      
Для отправки сообщений необходимо включить JavaScript
Показать сообщения:    

Текущее время: 07-Дек 00:48

Часовой пояс: UTC + 3


Вы можете начинать темы
Вы можете отвечать на сообщения
Вы не можете редактировать свои сообщения
Вы не можете удалять свои сообщения
Вы не можете голосовать в опросах
Вы не можете прикреплять файлы к сообщениям
Вы можете скачивать файлы