Документ Форё 1969 / Fårödokument / Faro document (Ингмар Бергман / Ingmar Bergman) [1970, Швеция, Документальный, DVDRip] + Sub Rus, Eng


Статистика раздачи [Обновить пиров]
Размер:  658 MB   |    Зарегистрирован:  1 год 1 месяц   |    Скачан:  2 раза
Сидов:  1  [  0 KB/s  ]   Подробная статистика пиров
 
   
 
 
 

[Цитировать]

Документ Форё 1969 / Fårö dokument /Faro document-- Страна: Швеция
Жанр: Документальный
Год выпуска: 1970
Продолжительность: 00:55:42
Перевод: Субтитры (Любительский перевод Ёжиков, ingwar-s)
Cубтитры: русские, английские
Режиссер: Ингмар Бергман / Ingmar Bergman
В ролях: Эрланд Валлин (Муниципальный председатель правления в Форёсунде), Ингрид Экман (Фермер), Вера Ханссон (Работник почтового отделения), Вернер Ларссон (Фермер), Артур Йоханссон (Рыбак), Эмилия Броман (Директор библиотеки), Карл Экман (Бывший кузнец и плотник, 102 лет), Свен Бернардер (Викарий), Айна Ларссон (Учительница), Эрик Экстрём (Водитель), Ида Лёфквист (Пенсионер), Уве и Бригитта Густавссоны (Молодожёны).
Описание: Остров Форё знаком киноманам всего мира прежде всего, как место съемок легендарных бергмановских шедевров "Персона", "Страсть" и "Сквозь тусклое стекло". С этим островом связана и биография самого режиссера, обитавшего на Форё без малого полвека.
В 1969 году, обеспокоенный массовым отъездом молодежи из провинции в Стокгольм, Ингмар Бергман снял документальный фильм о любимом острове, который шведские критики сразу же признали одним из лучших полотен режиссера.
Доп. информация: Большое спасибо за помощь в переводе ingwar-s
Качество видео: DVDRip
Формат видео: AVI
Видео: XVID, 640x480, 4:3, 1474 Кбит/сек, 24,000 кадра/сек
Аудио: MP3, 128 Кбит/сек, 1 канал, 44,1 КГц
Формат субтитров: softsub (SRT)

MediaInfo

Общее
Полное имя : F:\GAMES\Faro Dokument, 1970\Faro Dokument, 1970.avi
Формат : AVI
Формат/Информация : Audio Video Interleave
Размер файла : 658 Мбайт
Продолжительность : 56 м.
Общий поток : 1615 Кбит/сек
Видео
Идентификатор : 0
Формат : MPEG-4 Visual
Профиль формата : Simple@L3
Параметр BVOP формата : Нет
Параметр QPel формата : Нет
Параметр GMC формата : Без точки перехода
Параметр матрицы формата : Default (H.263)
Идентификатор кодека : XVID
Идентификатор кодека/Подсказка : XviD
Продолжительность : 56 м.
Битрейт : 1474 Кбит/сек
Ширина : 640 пикселей
Высота : 480 пикселей
Соотношение сторон : 4:3
Частота кадров : 24,000 кадра/сек
Цветовое пространство : YUV
Субдискретизация насыщенности : 4:2:0
Битовая глубина : 8 бит
Тип развёртки : Прогрессивная
Метод сжатия : С потерями
Бит/(Пиксели*Кадры) : 0.200
Размер потока : 601 Мбайт (91%)
Библиотека кодирования : XviD 1.2.1 (UTC 2008-12-04)
Аудио
Идентификатор : 1
Формат : MPEG Audio
Версия формата : Version 1
Профиль формата : Layer 3
Идентификатор кодека : 55
Идентификатор кодека/Подсказка : MP3
Продолжительность : 56 м.
Вид битрейта : Постоянный
Битрейт : 128 Кбит/сек
Каналы : 1 канал
Частота : 44,1 КГц
Метод сжатия : С потерями
Размер потока : 52,0 Мбайт (8%)
Выравнивание : Соединение по промежуткам
Продолжительность промежутка : 26 мс. (0,63 видеокадр)
Время предзагрузки промежутка : 26 мс.
Библиотека кодирования : LAME3.98.2

Скриншот c названием фильма

Скриншоты

[teatrix.ru].t4347.torrent 
Торрент: Зарегистрирован [ 2015-10-07 20:05 ] · FA6FBAA27F6545DC584E8430A7B3F095D35DB2DB

Скачать .torrent

Скачать

14 KB

Статус: проверено
Скачан: 2 раз
Размер: 658 MB
terms.php



Быстрый ответ

Имя:

      
Для отправки сообщений необходимо включить JavaScript
Показать сообщения:    

Текущее время: 06-Дек 17:10

Часовой пояс: UTC + 3


Вы можете начинать темы
Вы можете отвечать на сообщения
Вы не можете редактировать свои сообщения
Вы не можете удалять свои сообщения
Вы не можете голосовать в опросах
Вы не можете прикреплять файлы к сообщениям
Вы можете скачивать файлы