Лондон - Современный Вавилон / London - The Modern Babylon (Джульен Темпл / Julien Temple) [2012, Великобритания, документальный, HDTVRip 720p] MVO (Первый Канал)


Статистика раздачи [Обновить пиров]
Размер:  3.9 GB   |    Зарегистрирован:  1 год 2 месяца   |    Скачан:  0 раз

Полного источника не было: Никогда

 
   
 
 
 

[Цитировать]

Лондон - Современный Вавилон / London - The Modern Babylon- Год выпуска: 2012
Страна: Великобритания
Студия: BBC Arts | BBC Films
Жанр: Документальный
Продолжительность: 2:07:24
Перевод: Профессиональный (многоголосый закадровый) | "Первый Канал"
Режиссер: Джульен Темпл / Julien Temple-Описание: Лондон нередко называют современным Вавилоном. Он многолик, многонационален и неоднозначен. Документальный фильм рассказывает не только о коренных жителях этого города, но и об истории иммигрантов. Архивные кинопленки начала ХХ века, голоса лондонцев прошлого и настоящего и популярная музыка прошедших лет помогут совершить незабываемое путешествие во времени к сердцу столицы Туманного Альбиона.- -Автор рипа: lrn
Автор записи: Alexin29
Сэмпл: sendfile-Тип релиза: HDTV 720p
Контейнер: MKV
Видео: 1280x720 (16:9), 25,000 fps, H264, ~4000 kbps avg, ~0.174 bit/pixel
Аудио: 48 kHz, AC3 Dolby Digital, 3/2 (L,C,R,l,r) + LFE ch, ~384.00 kbps avg-

MediaInfo

GeneralUnique ID : 175997377347037159428053107255779207431 (0x8467DCA691708DE69D1E27C6A9472907)Complete name : E:\uTorrent.Temp\Temp\London.The.Modern.Babylon.2012.HDTV.720p.x264-RUS-lrn.mkvFormat : MatroskaFormat version : Version 4 / Version 2File size : 3.90 GiBDuration : 2h 7mnOverall bit rate : 4 386 KbpsMovie name : London.The.Modern.Babylon.2012.HDTV.720p.x264-RUS-lrnEncoded date : UTC 2010-02-22 21:41:31Writing application : mkvmerge v5.9.0 ('On The Loose') built on Dec 9 2012 15:37:01Writing library : libebml v1.3.0 + libmatroska v1.4.0DURATION : 02:07:24.880000000NUMBER_OF_FRAMES : 191122NUMBER_OF_BYTES : 3822777633_STATISTICS_WRITING_APP : mkvmerge v7.7.0 ('Six Voices') 32bit built on Feb 28 2015 23:23:00_STATISTICS_WRITING_DATE_UT : 2015-04-26 20:17:44_STATISTICS_TAGS : BPS DURATION NUMBER_OF_FRAMES NUMBER_OF_BYTES
VideoID : 1Format : AVCFormat/Info : Advanced Video CodecFormat profile : High@L4.1Format settings, CABAC : YesFormat settings, ReFrames : 8 framesCodec ID : V_MPEG4/ISO/AVCDuration : 2h 7mnBit rate : 4 000 KbpsWidth : 1 280 pixelsHeight : 720 pixelsDisplay aspect ratio : 16:9Frame rate mode : ConstantFrame rate : 25.000 fpsColor space : YUVChroma subsampling : 4:2:0Bit depth : 8 bitsScan type : ProgressiveBits/(Pixel*Frame) : 0.174Stream size : 3.48 GiB (89%)Writing library : x264 core 146 r2538 121396cEncoding settings : cabac=1 / ref=8 / deblock=1:-3:-3 / analyse=0x3:0x133 / me=umh / subme=9 / psy=1 / psy_rd=1.00:0.00 / mixed_ref=1 / me_range=32 / chroma_me=1 / trellis=2 / 8x8dct=1 / cqm=0 / deadzone=21,11 / fast_pskip=1 / chroma_qp_offset=-2 / threads=12 / lookahead_threads=2 / sliced_threads=0 / nr=0 / decimate=1 / interlaced=0 / bluray_compat=0 / constrained_intra=0 / bframes=8 / b_pyramid=2 / b_adapt=2 / b_bias=0 / direct=3 / weightb=1 / open_gop=0 / weightp=2 / keyint=250 / keyint_min=25 / scenecut=40 / intra_refresh=0 / rc_lookahead=50 / rc=2pass / mbtree=1 / bitrate=4000 / ratetol=1.0 / qcomp=0.60 / qpmin=0 / qpmax=69 / qpstep=4 / cplxblur=20.0 / qblur=0.5 / vbv_maxrate=62500 / vbv_bufsize=78125 / nal_hrd=none / filler=0 / ip_ratio=1.40 / aq=1:1.00Default : YesForced : No
AudioID : 2Format : AC-3Format/Info : Audio Coding 3Mode extension : CM (complete main)Format settings, Endianness : BigCodec ID : A_AC3Duration : 2h 7mnBit rate mode : ConstantBit rate : 384 KbpsChannel(s) : 6 channelsChannel positions : Front: L C R, Side: L R, LFESampling rate : 48.0 KHzCompression mode : LossyDelay relative to video : 99msStream size : 350 MiB (9%)Language : RussianDefault : YesForced : No

x264 log

raw [info]: 1280x720p 1:1 @ 25/1 fps (cfr)x264 [info]: using SAR=1/1x264 [info]: using cpu capabilities: MMX2 SSE2Fast SSSE3 SSE4.2 AVXx264 [info]: profile High, level 4.1x264 [info]: frame I:1909 Avg QP:17.09 size: 73808x264 [info]: frame P:49992 Avg QP:21.48 size: 30454x264 [info]: frame B:139221 Avg QP:23.59 size: 15511x264 [info]: consecutive B-frames: 3.3% 7.0% 6.5% 52.8% 7.6% 14.2% 2.3% 5.7% 0.6%x264 [info]: mb I I16..4: 15.8% 75.2% 8.9%x264 [info]: mb P I16..4: 2.4% 17.2% 1.2% P16..4: 36.2% 15.2% 8.2% 0.1% 0.0% skip:19.6%x264 [info]: mb B I16..4: 0.2% 2.5% 0.2% B16..8: 31.9% 11.9% 2.8% direct: 8.5% skip:42.0% L0:44.6% L1:44.3% BI:11.1%x264 [info]: 8x8 transform intra:83.1% inter:81.8%x264 [info]: direct mvs spatial:97.8% temporal:2.2%x264 [info]: coded y,uvDC,uvAC intra: 78.1% 44.2% 20.5% inter: 32.8% 19.0% 1.1%x264 [info]: i16 v,h,dc,p: 55% 13% 5% 27%x264 [info]: i8 v,h,dc,ddl,ddr,vr,hd,vl,hu: 14% 9% 8% 8% 12% 15% 12% 13% 11%x264 [info]: i4 v,h,dc,ddl,ddr,vr,hd,vl,hu: 16% 7% 3% 8% 14% 17% 12% 12% 11%x264 [info]: i8c dc,h,v,p: 61% 16% 13% 11%x264 [info]: Weighted P-Frames: Y:12.4% UV:2.4%x264 [info]: ref P L0: 45.1% 12.9% 16.9% 7.3% 5.8% 4.5% 4.0% 2.8% 0.7% 0.0%x264 [info]: ref B L0: 73.4% 11.9% 6.3% 3.4% 2.7% 1.6% 0.8%x264 [info]: ref B L1: 94.1% 5.9%x264 [info]: kb/s:4000.35encoded 191122 frames, 13.68 fps, 4000.35 kb/s

Скриншоты

-
[teatrix.ru].t4349.torrent 
Торрент: Зарегистрирован [ 2015-10-07 20:05 ] · 6A043755A757DACBE7EC5FF4BECB4F52B2C8E60A

Скачать .torrent

Скачать

20 KB

Статус: проверено
Скачан: 0 раз
Размер: 3.9 GB
terms.php



Быстрый ответ

Имя:

      
Для отправки сообщений необходимо включить JavaScript
Показать сообщения:    

Текущее время: 10-Дек 13:45

Часовой пояс: UTC + 3


Вы можете начинать темы
Вы можете отвечать на сообщения
Вы не можете редактировать свои сообщения
Вы не можете удалять свои сообщения
Вы не можете голосовать в опросах
Вы не можете прикреплять файлы к сообщениям
Вы можете скачивать файлы