Лив и Ингмар / Liv & Ingmar (Дхирадж Аколкар / Dheeraj Akolkar) [2012, Норвегия, Швеция, Великобритания, документальный, BDRip 1080p] Sub Rus, Eng + Original Eng


Статистика раздачи [Обновить пиров]
Размер:  6.55 GB   |    Зарегистрирован:  1 год 1 месяц   |    Скачан:  2 раза

Полного источника не было: 10 дней

 
   
 
 
 

[Цитировать]

Лив и Ингмар / Liv & Ingmar
Страна: Норвегия, Швеция, Великобритания
Жанр: документальный
Год выпуска: 2012
Продолжительность: 01:24:25
Перевод: Субтитры
Cубтитры: русские, английские
Оригинальная аудиодорожка: английский
Режиссер: Дхирадж Аколкар/Dheeraj Akolkar
В ролях: Лив Ульман (Liv Ullmann), Ингмар Бергман (Ingmar Bergman), Самуэль Фрёлер (Samuel Froler), Эрланд Юзефсон (Erland Josephson), Биби Андерссон (Bibi Andersson), Макс фон Сюдов (Max von Sydow), Харриет Андерссон (Harriet Andersson), Ингрид Тулин (Ingrid Thulin), Ингрид Бергман (Ingrid Bergman), Кари Сюльван (Kari Sylwan)
Описание: Роман норвежской актрисы Лив Ульманн и шведского режиссера Ингмара Бергмана — одна из вех ХХ века, событие-легенда. Когда Лив и Ингмар встретились на съемочной площадке «Персоны» (Persona, 1966), ей было 25, ему — 46, но это не имело никакого значения.
«Я помню каждое утро, когда он приходил», «первое лето было чистым счастьем»: слово «счастье» вообще очень часто возникает в воспоминаниях Лив о тех днях, когда она, её партнерша по фильму Биби Андерссон, Бергман и оператор Свен Нюквист вели себя как дети, а вечерами болтали с духами на сеансах столоверчения.
Вернувшись в Норвегию, Лив во всем призналась мужу (больше всего боялась, что расстроит свекровь), потом уехала к Ингмару на остров Форё, где они грезили наяву в только что построенном доме. Но вскоре в этом раю, отгороженном от мира стеной, стало понятно, что грезят они о разном, и счастье также мимолетно, как короткое скандинавское лето.
Доп. информация: Субтитры найдены в сети. Большое спасибо merry_prankster. Так как эти сабы шли на DVD, пришлось самому их кропотливо подгонять под 23,976 и сопоставлять их с турецкими сабами, так как тайминг был сбит напрочь и никакой программой автоматически не правился. Также мной исправлены ошибки в орфографии и пунктуации, смысл сказанного, некоторые фразы местами тоже откорректированы, заново переведены отрывки из фильмов Бергмана с использованием официальных переводов.
О фильме (ИМХО): Любители Бергмана, Лив Ульман, да и просто ВСЕМ очень советую. Это невероятная женщина, послушайте её, посмотрите за её мимикой... Её рассуждения о своей жизни, об отношениях с Бергманом, его влияние на неё... Вся история без прикрас. Я наслаждался каждой минутой перевода этого фильма...
Сэмпл: http://sendfile.su/1103947
Качество видео: BDRip 1080p
Формат видео: MKV
Видео: H264, 1920x1080, 16:9, 23,976, 10,2 Мбит/сек
Аудио: English, AC-3, 48kHz, 6ch, 640kbps

MediaInfo

Общее
Уникальный идентификатор : 174195789159602623070846830621697968714 (0x830CE37EC10E27DAA2DDAAB535F30A4A)
Полное имя : F:\VIDEO\Liv.And.Ingmar.2012.Criterion.Collection.1080p.BluRay.x264-PublicHD\Новая папка\Liv And Ingmar (2012) (1).mkv
Формат : Matroska
Версия формата : Version 4 / Version 2
Размер файла : 6,55 Гбайт
Продолжительность : 1 ч. 24 м.
Общий поток : 11,1 Мбит/сек
Дата кодирования : UTC 2015-04-06 15:25:42
Программа кодирования : mkvmerge v7.3.0 ('Nouages') 64bit built on Oct 22 2014 18:53:34
Библиотека кодирования : libebml v1.3.0 + libmatroska v1.4.1
DURATION : 01:20:46.496000000
NUMBER_OF_FRAMES : 938
NUMBER_OF_BYTES : 51860
_STATISTICS_WRITING_APP : mkvmerge v7.3.0 ('Nouages') 64bit built on Oct 22 2014 18:53:34
_STATISTICS_WRITING_DATE_UTC : 2015-04-06 15:25:42
_STATISTICS_TAGS : BPS DURATION NUMBER_OF_FRAMES NUMBER_OF_BYTES
Видео
Идентификатор : 1
Формат : AVC
Формат/Информация : Advanced Video Codec
Профиль формата : High@L4.1
Параметр CABAC формата : Да
Параметр ReFrames формата : 4 кадра
Идентификатор кодека : V_MPEG4/ISO/AVC
Продолжительность : 1 ч. 24 м.
Битрейт : 10,2 Мбит/сек
Ширина : 1920 пикселей
Высота : 1080 пикселей
Соотношение сторон : 16:9
Режим частоты кадров : Постоянный
Частота кадров : 23,976 кадра/сек
Цветовое пространство : YUV
Субдискретизация насыщенности : 4:2:0
Битовая глубина : 8 бит
Тип развёртки : Прогрессивная
Бит/(Пиксели*Кадры) : 0.206
Размер потока : 6,04 Гбайт (92%)
Язык : English
Default : Да
Forced : Нет
DURATION : 01:24:25.102000000
NUMBER_OF_FRAMES : 121441
NUMBER_OF_BYTES : 6623395773
_STATISTICS_WRITING_APP : mkvmerge v7.3.0 ('Nouages') 64bit built on Oct 22 2014 18:53:34
_STATISTICS_WRITING_DATE_UTC : 2015-04-06 15:25:42
_STATISTICS_TAGS : BPS DURATION NUMBER_OF_FRAMES NUMBER_OF_BYTES
Аудио
Идентификатор : 2
Формат : AC-3
Формат/Информация : Audio Coding 3
Расширение режима : CM (complete main)
Параметр Endianness формата : Big
Идентификатор кодека : A_AC3
Продолжительность : 1 ч. 24 м.
Вид битрейта : Постоянный
Битрейт : 640 Кбит/сек
Каналы : 6 каналов
Расположение каналов : Front: L C R, Side: L R, LFE
Частота : 48,0 КГц
Битовая глубина : 16 бит
Метод сжатия : С потерями
Размер потока : 386 Мбайт (6%)
Язык : English
Default : Да
Forced : Нет
Текст #1
Идентификатор : 3
Формат : UTF-8
Идентификатор кодека : S_TEXT/UTF8
Идентификатор кодека/Информация : UTF-8 Plain Text
Заголовок : Русские
Язык : Russian
Default : Да
Forced : Да
Текст #2
Идентификатор : 4
Формат : UTF-8
Идентификатор кодека : S_TEXT/UTF8
Идентификатор кодека/Информация : UTF-8 Plain Text
Язык : English
Default : Нет
Forced : Нет
Текст #3
Идентификатор : 5
Формат : UTF-8
Идентификатор кодека : S_TEXT/UTF8
Идентификатор кодека/Информация : UTF-8 Plain Text
Язык : English
Default : Нет
Forced : Нет
Меню
00:00:00.000 : en:Introduction
00:05:50.058 : en:Love
00:17:00.561 : en:Loneliness
00:26:28.712 : en:Rage
00:35:51.358 : en:Pain
00:49:50.988 : en:Longing
01:00:11.441 : en:Friendship
01:09:07.143 : en:Peace

Скриншоты

[teatrix.ru].t4351.torrent 
Торрент: Зарегистрирован [ 2015-10-07 20:05 ] · DC31C12E98D6D235F688B78D50E30D04BC97917D

Скачать .torrent

Скачать

17 KB

Статус: проверено
Скачан: 2 раз
Размер: 6.55 GB
terms.php



Быстрый ответ

Имя:

      
Для отправки сообщений необходимо включить JavaScript
Показать сообщения:    

Текущее время: 06-Дек 13:16

Часовой пояс: UTC + 3


Вы можете начинать темы
Вы можете отвечать на сообщения
Вы не можете редактировать свои сообщения
Вы не можете удалять свои сообщения
Вы не можете голосовать в опросах
Вы не можете прикреплять файлы к сообщениям
Вы можете скачивать файлы