20 000 дней на Земле / 20,000 Days on Earth (Иэн Форсайт, Джейн Поллард / Iain Forsyth, Jane Pollard) [2014, Великобритания, документальный, музыка, BDRip] Sub Rus + Original Eng


Статистика раздачи [Обновить пиров]
Размер:  1.4 GB   |    Зарегистрирован:  1 год 1 месяц   |    Скачан:  0 раз

Полного источника не было: Никогда

 
   
 
 
 

[Цитировать]

20 000 дней на Земле / 20,000 Days on Earth
Страна: Великобритания
Жанр: Документальный, музыка
Год выпуска: 2014
Продолжительность: 01:33:21
Перевод: Субтитры
Cубтитры: русские
Оригинальная аудиодорожка: английский
Режиссер: Иэн Форсайт, Джейн Поллард / Iain Forsyth, Jane Pollard
В ролях: Ник Кейв, Сьюзи Бик, Уоррен Эллис, Дариан Лидер, Рэй Уинстон, Бликса Баргельд, Кайли Миноуг, Артур Кейв, Эрл Кейв, Томас Уилдлер, Мартин Кэйси, Конуэй Сэвэдж, Бэрри Адамсон
Описание: Псевдодокументальный взгляд на настоящее, прошлое и будущее музыканта, писателя и уже не человека, но рукотворный миф - Ника Кейва.
Великое кино как таковое, обязательное всем неравнодушным к австралийскому гению.
Сэмпл: http://sendfile.su/1099949
Качество видео: BDRip
Формат видео: AVI
Видео: XviD, 720x304 (2.35:1), 25 fps, 1697 kbps
Аудио: AC3, 48 kHz, 6 ch, 448 kbps
Формат субтитров: softsub (SRT)

MediaInfo

Общее
Полное имя : C:\20.000 Days on Earth\20000.Days.on.Earth.avi
Формат : AVI
Формат/Информация : Audio Video Interleave
Профиль формата : OpenDML
Настройки формата : rec
Размер файла : 1,40 Гбайт
Продолжительность : 1 ч. 33 м.
Общий поток : 2151 Кбит/сек
Программа кодирования : AVI-Mux GUI 1.17.8.3, Feb 16 201019:42:50
Видео
Идентификатор : 0
Формат : MPEG-4 Visual
Профиль формата : Advanced Simple@L5
Параметр BVOP формата : 2
Параметр QPel формата : Нет
Параметр GMC формата : Без точки перехода
Параметр матрицы формата : Default (H.263)
Режим смешивания : Сжатый битовый поток
Идентификатор кодека : XVID
Идентификатор кодека/Подсказка : XviD
Продолжительность : 1 ч. 33 м.
Битрейт : 1697 Кбит/сек
Ширина : 720 пикселей
Высота : 304 пикселя
Соотношение сторон : 2,35:1
Частота кадров : 25,000 кадров/сек
Цветовое пространство : YUV
Субдискретизация насыщенности : 4:2:0
Битовая глубина : 8 бит
Тип развёртки : Прогрессивная
Метод сжатия : С потерями
Бит/(Пиксели*Кадры) : 0.310
Размер потока : 1,11 Гбайт (79%)
Библиотека кодирования : XviD 64
Аудио
Идентификатор : 1
Формат : AC-3
Формат/Информация : Audio Coding 3
Расширение режима : CM (complete main)
Параметр Endianness формата : Big
Идентификатор кодека : 2000
Продолжительность : 1 ч. 33 м.
Вид битрейта : Постоянный
Битрейт : 448 Кбит/сек
Каналы : 6 каналов
Расположение каналов : Front: L C R, Side: L R, LFE
Частота : 48,0 КГц
Битовая глубина : 16 бит
Метод сжатия : С потерями
Размер потока : 299 Мбайт (21%)
Выравнивание : Соединение по промежуткам
Продолжительность промежутка : 64 мс. (1,60 видеокадра)
Время предзагрузки промежутка : 192 мс.
Заголовок : trips-20000.days.on.earth

Образец субтитров

853
00:52:22,056 --> 00:52:25,151
Это я.. не знаю, подросток или типа того.
854
00:52:25,267 --> 00:52:27,269
Я не слишком увлекался спортом и подобным,
855
00:52:27,394 --> 00:52:30,898
нас было несколько человек, которые занимались искусством,
856
00:52:30,981 --> 00:52:33,700
которые впоследствии и стали "The Boys Next Door".
858
00:52:35,944 --> 00:52:38,413
Это.. Мик Харви.
859
00:52:38,530 --> 00:52:40,453
Когда у него еще были хорошие волосы,
860
00:52:40,574 --> 00:52:42,952
а это..
861
00:52:43,077 --> 00:52:46,456
это я в центре с ними.
862
00:52:46,580 --> 00:52:48,548
Это Трейси Пью.
863
00:52:48,624 --> 00:52:52,879
Трейси был из тех полностью сформировавшихся парней,
864
00:52:53,003 --> 00:52:55,005
также как и Роланд С. Говард.
865
00:52:55,130 --> 00:52:58,179
Они как бы появились уже полными личностями.
866
00:52:58,300 --> 00:53:00,678
Но он был отличным басистом, этот парень,
867
00:53:00,803 --> 00:53:04,103
по-настоящему душой и сердцем "The Birthday Party".
868
00:53:06,016 --> 00:53:09,236
Вот он. Это Мик, Роланд.
869
00:53:09,353 --> 00:53:12,698
Это прекрасная фотография.

Скриншот c названием фильма

Скриншоты

[teatrix.ru].t4354.torrent 
Торрент: Зарегистрирован [ 2015-10-07 20:05 ] · 88378D3809B5B2A7AEECBDC74C57C20BCEA24463

Скачать .torrent

Скачать

15 KB

Статус: проверено
Скачан: 0 раз
Размер: 1.4 GB
terms.php



Быстрый ответ

Имя:

      
Для отправки сообщений необходимо включить JavaScript
Показать сообщения:    

Текущее время: 04-Дек 21:20

Часовой пояс: UTC + 3


Вы можете начинать темы
Вы можете отвечать на сообщения
Вы не можете редактировать свои сообщения
Вы не можете удалять свои сообщения
Вы не можете голосовать в опросах
Вы не можете прикреплять файлы к сообщениям
Вы можете скачивать файлы