Ай Вэйвэй: Никогда не извиняйся / Ai Weiwei: Never Sorry (Элисон Клэйман / Alison Klayman) [2011, США, документальный, концептуальное искусство, DVB] DVO (Amedia)


Статистика раздачи [Обновить пиров]
Размер:  1.44 GB   |    Зарегистрирован:  1 год 2 месяца   |    Скачан:  1 раз

Полного источника не было: 3 месяца 22 дня

 
   
 
 
 

[Цитировать]

Ай Вэйвэй: Никогда не извиняйся
Ai Weiwei: Never Sorry- Страна: США
Жанр: документальный, концептуальное искусство
Год выпуска: 2011
Продолжительность: 01:30:47Перевод: Профессиональный (двухголосый закадровый) Amedia 1
Cубтитры: нет
Режиссер: Элисон Клэйман / Alison Klayman
В ролях: Ай Вэйвэй, Итан Коэн
Описание: Ай Вэйвэй — известный китайский современный художник. Он знаменит не только своими международными выставками, но и открытым противодействием китайским властям, из-за чего официальные представители страны несколько раз пытались запретить показ этого фильма на различных международных кинофестивалях.
Независимая американская журналистка Элисон Клэймен три года снимала Ай Вэйвэя, в ее объектив попал самый драматичный период жизни художника — международный успех, конфликты в семье, арест, тюрьма и домашний арест.
Доп. информация: Amedia 1 DVB-S
Награды: Cпециальный приз жюри в секции "Документальное кино" Sundance Film Festival 2012 + номинация на Гран-при за лучший документальный фильм; включен в TOP 5 лучших документальных фильмов National Board of Review (USA) 2012; номинация на премию "Эмми" 2014 за лучший документальный фильм об искусстве и культуре; др. награды.

Качество видео: DVB
Формат видео: MKV
Видео: MPEG Video 2, 720x576@1024x576 (16:9), 25 fps, ~2037 kbps avg, 0.197 bit/pixel
Аудио: MPEG Audio 2, 2 ch, 48 kHz, ~192.00 kbps avg

MediaInfo

ОбщееУникальный идентификатор : 206579888190319603714522925953825941977 (0x9B69D6D99284899ABB4064E27868A9D9)Полное имя : E:\My Torrents 2\[apreder]Ai_Weiwei_Never_Sorry(2011)DVB.mkvФормат : MatroskaВерсия формата : Version 2Размер файла : 1,44 ГбайтПродолжительность : 1 ч. 30 м.Режим общего битрейта : ПеременныйОбщий поток : 2275 Кбит/секДата кодирования : UTC 2015-03-23 17:00:05Программа кодирования : mkvmerge v7.7.0 ('Six Voices') 64bit built on Feb 28 2015 23:39:33Библиотека кодирования : libebml v1.3.1 + libmatroska v1.4.2
ВидеоИдентификатор : 1Формат : MPEG VideoВерсия формата : Version 2Профиль формата : Main@MainПараметр BVOP формата : ДаПараметр матрицы формата : ВыборочнаяПараметр GOP формата : M=3, N=36Format_Settings_PictureStructure : FrameИдентификатор кодека : V_MPEG2Идентификатор кодека/Информация : MPEG 1 or 2 VideoПродолжительность : 1 ч. 30 м.Вид битрейта : ПеременныйБитрейт : 2037 Кбит/секШирина : 720 пикселейВысота : 576 пикселейСоотношение сторон : 16:9Режим частоты кадров : ПостоянныйЧастота кадров : 25,000 кадров/секСтандарт вещания : PALЦветовое пространство : YUVСубдискретизация насыщенности : 4:2:0Битовая глубина : 8 битТип развёртки : ЧересстрочнаяПорядок развёртки : Верхнее поле первоеМетод сжатия : С потерямиБит/(Пиксели*Кадры) : 0.197Временной код первого кадра : 00:00:00:00Оригинал временного кода : Group of pictures headerРазмер потока : 1,29 Гбайт (90%)Default : ДаForced : НетGop_OpenClosed_FirstFrame : Closed
АудиоИдентификатор : 2Формат : MPEG AudioВерсия формата : Version 1Профиль формата : Layer 2Идентификатор кодека : A_MPEG/L2Идентификатор кодека/Подсказка : MP2Продолжительность : 1 ч. 30 м.Вид битрейта : ПостоянныйБитрейт : 192 Кбит/секКаналы : 2 каналаЧастота : 48,0 КГцМетод сжатия : С потерямиРазмер потока : 125 Мбайт (8%)Язык : RussianDefault : ДаForced : Нет

Скриншот c названием фильма

Скриншоты


Резервные скриншоты


-[2'176]
[teatrix.ru].t4355.torrent 
Торрент: Зарегистрирован [ 2015-10-07 20:05 ] · C065C65EF44F3D59B95609706D024BB0E33B4D1B

Скачать .torrent

Скачать

15 KB

Статус: проверено
Скачан: 1 раз
Размер: 1.44 GB
terms.php



Быстрый ответ

Имя:

      
Для отправки сообщений необходимо включить JavaScript
Показать сообщения:    

Текущее время: 10-Дек 13:47

Часовой пояс: UTC + 3


Вы можете начинать темы
Вы можете отвечать на сообщения
Вы не можете редактировать свои сообщения
Вы не можете удалять свои сообщения
Вы не можете голосовать в опросах
Вы не можете прикреплять файлы к сообщениям
Вы можете скачивать файлы