Ай Вэйвэй: Сфабрикованное дело / Ai Weiwei: The Fake Case (Андреас Йонсен / Andreas Johnsen) [2013, Дания, Китай, Великобритания, документальная драма, концептуальное искусство, DVB] DVO (SDI Media)


Статистика раздачи [Обновить пиров]
Размер:  860 MB   |    Зарегистрирован:  1 год 2 месяца   |    Скачан:  0 раз

Полного источника не было: Никогда

 
   
 
 
 

[Цитировать]

Ай Вэйвэй: Сфабрикованное дело
Ai Weiwei: The Fake Case- Страна: Дания, Китай, Великобритания
Жанр: документальная драма, концептуальное искусство
Год выпуска: 2013
Продолжительность: 00:57:30Перевод: Профессиональный (двухголосый закадровый) Компания SDI Media по заказу канала "24ДОК"
Cубтитры: нет
Режиссер: Андреас Йонсен / Andreas Johnsen
В ролях: Ай Вэйвэй, Джером Коэн, Лао Ай
Описание: Его избивала полиция, против студии Ай Вэйвэя сфабриковали дело об уклонении от налогов, Ай Вэйвэй, наконец, сидел 81 день, вызывая массовые протесты европейской и американской общественности. Искусство его тем временем ничуть не изменилось. В 2012 году галерея Тейт приобрела часть инсталляции "Семена подсолнечника", сделанной для Турбинного зала галереи. Это миллионы фарфоровых семян в натуральную величину, изготовленных китайскими рабочими вручную. Ай Вэйвэй в очередной раз показал то, о чем всем известно: Китай — единственная сверхдержава, которая может позволить себе ремесленный труд такого масштаба ради чистого искусства. (Валентин Дьяконов)
Доп. информация: 24ДОК DVB-S
Награды: приз за лучший документальный фильм Danish Film Critics' Association - Bodil Awards 2014; номинация на лучший документальный фильм Robert Festival 2014.

Качество видео: DVB
Формат видео: MKV
Видео: MPEG Video 2, 720x576@768x576 (4:3), 25 fps, ~1857 kbps avg, 0.179 bit/pixel
Аудио: MPEG Audio 2, 2 ch, 48 kHz, ~192.00 kbps avg

MediaInfo

ОбщееУникальный идентификатор : 215425651327546300317148423916746373705 (0xA21178A50672B54DA4E9CC73B62AFA49)Полное имя : E:\My Torrents 2\[apreder]Ai_Weiwei_The_Fake_Case(2013)DVB.mkvФормат : MatroskaВерсия формата : Version 2Размер файла : 860 МбайтПродолжительность : 57 м.Режим общего битрейта : ПеременныйОбщий поток : 2090 Кбит/секДата кодирования : UTC 2015-02-07 15:33:24Программа кодирования : mkvmerge v7.5.0 ('Glass Culture') 64bit built on Jan 4 2015 16:48:44Библиотека кодирования : libebml v1.3.1 + libmatroska v1.4.2
ВидеоИдентификатор : 1Формат : MPEG VideoВерсия формата : Version 2Профиль формата : Main@MainПараметр BVOP формата : ДаПараметр матрицы формата : ВыборочнаяПараметр GOP формата : M=3, N=36Format_Settings_PictureStructure : FrameИдентификатор кодека : V_MPEG2Идентификатор кодека/Информация : MPEG 1 or 2 VideoПродолжительность : 57 м.Вид битрейта : ПеременныйБитрейт : 1857 Кбит/секШирина : 720 пикселейВысота : 576 пикселейСоотношение сторон : 4:3Режим частоты кадров : ПостоянныйЧастота кадров : 25,000 кадров/секСтандарт вещания : PALЦветовое пространство : YUVСубдискретизация насыщенности : 4:2:0Битовая глубина : 8 битТип развёртки : ЧересстрочнаяПорядок развёртки : Верхнее поле первоеМетод сжатия : С потерямиБит/(Пиксели*Кадры) : 0.179Временной код первого кадра : 00:00:00:00Оригинал временного кода : Group of pictures headerРазмер потока : 764 Мбайт (89%)Default : ДаForced : Нет
АудиоИдентификатор : 2Формат : MPEG AudioВерсия формата : Version 1Профиль формата : Layer 2Идентификатор кодека : A_MPEG/L2Идентификатор кодека/Подсказка : MP2Продолжительность : 57 м.Вид битрейта : ПостоянныйБитрейт : 192 Кбит/секКаналы : 2 каналаЧастота : 48,0 КГцМетод сжатия : С потерямиРазмер потока : 79,0 Мбайт (9%)Язык : RussianDefault : ДаForced : Нет

Скриншот c названием фильма

Скриншоты

Резервные скриншоты

-[2'106]
[teatrix.ru].t4364.torrent 
Торрент: Зарегистрирован [ 2015-10-07 20:05 ] · 23DA743D691DA0509BAABF4ACA88A9E66DD7C20D

Скачать .torrent

Скачать

17 KB

Статус: проверено
Скачан: 0 раз
Размер: 860 MB
terms.php



Быстрый ответ

Имя:

      
Для отправки сообщений необходимо включить JavaScript
Показать сообщения:    

Текущее время: 08-Дек 14:56

Часовой пояс: UTC + 3


Вы можете начинать темы
Вы можете отвечать на сообщения
Вы не можете редактировать свои сообщения
Вы не можете удалять свои сообщения
Вы не можете голосовать в опросах
Вы не можете прикреплять файлы к сообщениям
Вы можете скачивать файлы