Частные хроники. Монолог / (Виталий Манский) [1999, Россия, Документальный, хроника, авторский, IPTVRip]


Статистика раздачи [Обновить пиров]
Размер:  1.37 GB   |    Зарегистрирован:  1 год 2 месяца   |    Скачан:  0 раз

Полного источника не было: Никогда

 
   
 
 
 

[Цитировать]

Частные хроники. Монолог
Страна: Россия, МВ Студия
Жанр: Документальный, хроника, авторский
Год выпуска: 1999
Продолжительность: 00:46:30 + 00:44:53
Перевод: Не требуется
Cубтитры: нет
Режиссер: Виталий Манский
Рассказчик: Александр Цекало
Описание: Герой фильма родился 11 апреля 1961 года, накануне одного из самых оптимистических дней в советской истории — полета в космос Юрия Гагарина. Год за годом вместе с героем фильма мы проживаем не только жизнь одного человека, но и жизнь всего государства до 1986 года — года, когда начался процесс распада империи и когда вновь появился оптимизм: оптимизм построения нового общества, о котором советские люди в начале 60-х годов не имели представления. В «Частных хрониках» нет ни одного профессионально снятого кадра. Он весь создан советскими людьми, кинолюбителями, снимавшими скромные семейные хроники, не предназначенные ни для какого зрителя, кроме них самих. И в этом смысле «Частные хроники. Монолог» — первый в истории русского кинематографа «народный» фильм, в том смысле, что он создан самим народом. Это заключительный фильм большого проекта по созданию уникального архива домашних киносъемок, которые на протяжении многих лет, начиная с 1945 года, осуществляли сотни непрофессиональных кинолюбителей на территории бывшего СССР. В этот уникальный архив вошло более 5000 часов киноматериала, большая часть которого переведена на видео в формате БЕТАКАМ, создана компьютерная база для работы с этим архивом, которая включает 20000 стоп-кадров, и на основе этого банка данных издан CD ROM. "Я писал реквием поколению — самому трагическому поколению со времен Пушкина» — Игорь Яркевич (автор текста).
Доп. информация: Для лучшего восприятия видеоряда убрал логотип канала
Раздача производится папкой. Содержание - 2 (два) видеофайла: 1 и 2 часть фильма
Сэмпл: http://multi-up.com/1029704
Качество видео: IPTVRip
Формат видео: AVI
Видео: 720x544 (1.32:1), 25 fps, XviD 73, 1906/1982 kbps avg, 0.20 bit/pixel
Аудио: 48 kHz, AC3 Dolby Digital, 2/0 (L,R) ch, ~192 kbps
Подобные раздачи: http://rutracker.org/forum/viewtopic.php?t=397605

MediaInfo

General
Complete name : E:\Pshichko66\Na zapis'\Документальные фильмы\Chastnye hroniki. Monolog\1 chast'.avi
Format : AVI
Format/Info : Audio Video Interleave
File size : 701 MiB
Duration : 46mn 30s
Overall bit rate : 2 108 Kbps
Writing application : VirtualDubMod 1.5.10.3 | www.virtualdub-fr.org || (build 2550/release)
Writing library : VirtualDubMod build 2550/release
Video
ID : 0
Format : MPEG-4 Visual
Format profile : Advanced Simple@L5
Format settings, BVOP : 2
Format settings, QPel : No
Format settings, GMC : No warppoints
Format settings, Matrix : Custom
Codec ID : XVID
Codec ID/Hint : XviD
Duration : 46mn 30s
Bit rate : 1 906 Kbps
Width : 720 pixels
Height : 544 pixels
Display aspect ratio : 4:3
Frame rate : 25.000 fps
Color space : YUV
Chroma subsampling : 4:2:0
Bit depth : 8 bits
Scan type : Progressive
Compression mode : Lossy
Bits/(Pixel*Frame) : 0.195
Stream size : 634 MiB (90%)
Writing library : XviD 73
Audio
ID : 1
Format : AC-3
Format/Info : Audio Coding 3
Mode extension : CM (complete main)
Format settings, Endianness : Big
Codec ID : 2000
Duration : 46mn 30s
Bit rate mode : Constant
Bit rate : 192 Kbps
Channel(s) : 2 channels
Channel positions : Front: L R
Sampling rate : 48.0 KHz
Bit depth : 16 bits
Compression mode : Lossy
Stream size : 63.9 MiB (9%)
Alignment : Split accross interleaves
Interleave, duration : 40 ms (1.00 video frame)
Interleave, preload duratio : 500 ms
General
Complete name : E:\Pshichko66\Na zapis'\Документальные фильмы\Chastnye hroniki. Monolog\2 chast'.avi
Format : AVI
Format/Info : Audio Video Interleave
File size : 701 MiB
Duration : 44mn 53s
Overall bit rate : 2 184 Kbps
Writing application : VirtualDubMod 1.5.10.3 | www.virtualdub-fr.org || (build 2550/release)
Writing library : VirtualDubMod build 2550/release
Video
ID : 0
Format : MPEG-4 Visual
Format profile : Advanced Simple@L5
Format settings, BVOP : 2
Format settings, QPel : No
Format settings, GMC : No warppoints
Format settings, Matrix : Custom
Codec ID : XVID
Codec ID/Hint : XviD
Duration : 44mn 53s
Bit rate : 1 982 Kbps
Width : 720 pixels
Height : 544 pixels
Display aspect ratio : 4:3
Frame rate : 25.000 fps
Color space : YUV
Chroma subsampling : 4:2:0
Bit depth : 8 bits
Scan type : Progressive
Compression mode : Lossy
Bits/(Pixel*Frame) : 0.202
Stream size : 636 MiB (91%)
Writing library : XviD 73
Audio
ID : 1
Format : AC-3
Format/Info : Audio Coding 3
Mode extension : CM (complete main)
Format settings, Endianness : Big
Codec ID : 2000
Duration : 44mn 53s
Bit rate mode : Constant
Bit rate : 192 Kbps
Channel(s) : 2 channels
Channel positions : Front: L R
Sampling rate : 48.0 KHz
Bit depth : 16 bits
Compression mode : Lossy
Stream size : 61.6 MiB (9%)
Alignment : Split accross interleaves
Interleave, duration : 40 ms (1.00 video frame)
Interleave, preload duratio : 500 ms

Скриншот c названием фильма

Скриншоты

[teatrix.ru].t4367.torrent 
Торрент: Зарегистрирован [ 2015-10-07 20:05 ] · 633CF70DA52B34C8E9B3D581C0819B340874010C

Скачать .torrent

Скачать

14 KB

Статус: проверено
Скачан: 0 раз
Размер: 1.37 GB
terms.php



Быстрый ответ

Имя:

      
Для отправки сообщений необходимо включить JavaScript
Показать сообщения:    

Текущее время: 11-Дек 11:00

Часовой пояс: UTC + 3


Вы можете начинать темы
Вы можете отвечать на сообщения
Вы не можете редактировать свои сообщения
Вы не можете удалять свои сообщения
Вы не можете голосовать в опросах
Вы не можете прикреплять файлы к сообщениям
Вы можете скачивать файлы