Хантер едет в Голливуд / Hunter Goes to Hollywood (Уэйн Юинг / Wayne Ewing) [2003, США, документальный, биография, WEBRip-AVC] VO Jimmy J.


Статистика раздачи [Обновить пиров]
Размер:  52 MB   |    Зарегистрирован:  1 год 2 месяца   |    Скачан:  0 раз

Полного источника не было: Никогда

 
   
 
 
 

[Цитировать]

Хантер едет в ГолливудHunter Goes to Hollywood Страна: США
Жанр: документальный, биография
Год выпуска: 2003
Продолжительность: 10:37
Перевод: Одноголосый закадровый [Jimmy J.]
Cубтитры: нет
Оригинальная аудиодорожка: английский-Режиссер: Уэйн Юинг / Wayne Ewing
В ролях: Хантер С. Томпсон, Джонни Депп, Бенисио Дель Торо и другие.
Описание: Короткометражный документальный фильм о Хантере С. Томпсоне- -Доп. информация: МОДЕРАТОРАМ: не существует никакой другой версии рипа-Релиз: : Zenk-Качество видео: WEBRip [Сэмпл]
Формат видео: MP4
Видео: 480x360 (4:3), 29.9706 fps, avc1 395 kbps, 0.076 bit/pixel
Аудио 1: 44.100 kHz, MPEG Layer 3, 2 ch, 192 kbps avg [Jimmy J.]
Аудио 2: 44.100 kHz, AAC, 2 ch, 16 kbps avg [Английский]-

MediaInfo

General
Complete name : D:\Видео\Фильмы\Хантер Томпсон\Хантер едет в Голливуд (2003) WEBRip.mp4
Format : MPEG-4
Format profile : Base Media
Codec ID : isom
File size : 52.2 MiB
Duration : 10mn 40s
Overall bit rate mode : Variable
Overall bit rate : 684 Kbps
Encoded date : UTC 2015-01-04 11:00:34
Tagged date : UTC 2015-01-04 11:00:34
Writing application : Yamb 2.1.0.0 []http://yamb.unite-video.com]
Copyright : Z
Video
ID : 1
Format : AVC
Format/Info : Advanced Video Codec
Format profile : Baseline@L3.0
Format settings, CABAC : No
Format settings, ReFrames : 1 frame
Format settings, GOP : M=1, N=60
Codec ID : avc1
Codec ID/Info : Advanced Video Coding
Duration : 10mn 37s
Source duration : 10mn 37s
Bit rate : 395 Kbps
Maximum bit rate : 1 043 Kbps
Width : 480 pixels
Height : 360 pixels
Display aspect ratio : 4:3
Frame rate mode : Constant
Frame rate : 29.970 fps
Color space : YUV
Chroma subsampling : 4:2:0
Bit depth : 8 bits
Scan type : Progressive
Bits/(Pixel*Frame) : 0.076
Stream size : 30.0 MiB (58%)
Source stream size : 30.0 MiB (58%)
Tagged date : UTC 2015-01-04 11:00:35
Audio #1
ID : 2
Format : MPEG Audio
Format version : Version 1
Format profile : Layer 3
Mode : Joint stereo
Mode extension : MS Stereo
Codec ID : 6B
Duration : 10mn 40s
Bit rate mode : Constant
Bit rate : 192 Kbps
Maximum bit rate : 200 Kbps
Channel(s) : 2 channels
Sampling rate : 44.1 KHz
Compression mode : Lossy
Stream size : 14.6 MiB (28%)
Title : Jimmy J.
Language : Russian
Encoded date : UTC 2015-01-04 11:00:35
Tagged date : UTC 2015-01-04 11:00:35
Audio #2
ID : 3
Format : AAC
Format/Info : Advanced Audio Codec
Format profile : LC
Codec ID : 40
Duration : 10mn 37s
Bit rate mode : Variable
Bit rate : 96.0 Kbps
Maximum bit rate : 102 Kbps
Channel(s) : 2 channels
Channel positions : Front: L R
Sampling rate : 44.1 KHz
Compression mode : Lossy
Stream size : 7.29 MiB (14%)
Language : English
Encoded date : UTC 2015-01-04 11:00:35
Tagged date : UTC 2015-01-04 11:00:35

Скриншот c названием фильма

Скриншоты

[teatrix.ru].t4373.torrent 
Торрент: Зарегистрирован [ 2015-10-08 00:27 ] · 385C32090EEA4CED8C368DBF9FD8B07719349883

Скачать .torrent

Скачать

17 KB

Статус: проверено
Скачан: 0 раз
Размер: 52 MB
terms.php



Быстрый ответ

Имя:

      
Для отправки сообщений необходимо включить JavaScript
Показать сообщения:    

Текущее время: 09-Дек 10:50

Часовой пояс: UTC + 3


Вы можете начинать темы
Вы можете отвечать на сообщения
Вы не можете редактировать свои сообщения
Вы не можете удалять свои сообщения
Вы не можете голосовать в опросах
Вы не можете прикреплять файлы к сообщениям
Вы можете скачивать файлы