Встречи на краю света / Встречи на краю мира / Encounters at the End of the World (Вернер Херцог / Werner Herzog) [2007, документальный, BDRip] 2xVO + Original Eng + subs (rus, eng, ukr)


Статистика раздачи [Обновить пиров]
Размер:  2.18 GB   |    Зарегистрирован:  1 год 1 месяц   |    Скачан:  0 раз

Полного источника не было: Никогда

 
   
 
 
 

[Цитировать]

Встречи на краю света / Встречи на краю мира / Encounters at the End of the World- Год выпуска: 2007
Страна: США
Жанр: документальный
Продолжительность: 01:40:43
Перевод: Профессиональный (одноголосый, закадровый) Союз-Видео
+ Профессиональный (одноголосый, закадровый) Вариант #2
+ Оригинальная звуковая дорожка
Субтитры: Русские, Украинские (внешние srt*), Английские (внешние ass*)-Режиссер: Вернер Херцог / Werner Herzog
В ролях: Вернер Херцог, Скотт Роулэнд, Стефан Пашов, Др. Даг МакАйил, Райан Эндрю Эванс, Кевин Эмери, Олав Т. Офтедаль, Реджина Эйсерт, Дэвид Р. Пачеко мл., Сэмюэл С. Баузер
О фильме: Вооруженный коллекцией многих причудливых вопросов и обещанием не снимать «другое кино о пингвинах», режиссер Вернер Херцог едет в Антарктиду, с намерением снять фильм о том, что он найдёт подо льдом. Он начинает свою историю на военном самолете, который доставит его на станцию McMurdo, американскому Антарктическому исследовательскому центру.
Станция расположена на южной стороне Острова Росса, на берегу McMurdo Sound, и может поддерживать жизнь и работу приблизительно 1200 человек. Вернер Херцог берет интервью у философов, банкиров, и даже других кинопроизводителей, у всех тех, кто сбежал от своей обычной городской жизни для того, чтобы жить и работать на McMurdo. Он также берёт интервью у некоторых учёных и преподавателей школы выживания.
Даже находясь вместе со всеми этими интересными людьми, живущими и работающими на McMurdo, Вернер Херцог расстроен тем, насколько эта жизнь так похожа на городскую (он ненавидит присутствие на станции курсов йоги и торговых автоматов), и ещё он очень разочарован хорошей погодой…-Релиз:
Автор: kingsize87
Качество: BDRip (источник: trigue / BD-Remux / 1080i)
Формат: AVI
Видео: 704x400 (1.76:1), 23,976 fps, XviD build 65 ~2259 kbps avg, 0.33 bit/pixel
Аудио #1: 48 kHz, AC3 Dolby Digital, 2/0 (L,R), ~192.00 kbps avg VO Союз-Видео
Аудио #2: 48 kHz, AC3 Dolby Digital, 2/0 (L,R), ~192.00 kbps avg VO
Аудио #3: 48 kHz, AC3 Dolby Digital, 3/2 (L,C,R,l,r) + LFE ch, ~448.00 kbps avg eng
Размер: 2230.58 Mb (1/2 DVD-R)
Скачать: Семпл-

Кадры из фильма


-

Mi

Формат : AVI
Формат/Информация : Audio Video Interleave
Профиль формата : OpenDML
Размер файла : 2,18 Гбайт
Продолжительность : 1 ч. 40 м.
Общий поток : 3096 Кбит/сек
Название фильма : Встречи на краю света / Встречи на краю мира / Encounters at the End of the World (2007) BDRip
Режиссёр : kingsize87
Программа кодирования : VirtualDubMod 1.5.10.2 (build 2540/release)
Правообладатель : 03.01.2015
Примечание : HQCLUB
Видео
Идентификатор : 0
Формат : MPEG-4 Visual
Профиль формата : Advanced Simple@L5
Параметр BVOP формата : 1
Параметр QPel формата : Нет
Параметр GMC формата : Без точки перехода
Параметр матрицы формата : Выборочная
Идентификатор кодека : XVID
Идентификатор кодека/Подсказка : XviD
Продолжительность : 1 ч. 40 м.
Битрейт : 2242 Кбит/сек
Ширина : 704 пикселя
Высота : 400 пикселей
Соотношение сторон : 16:9
Частота кадров : 23,976 кадра/сек
Цветовое пространство : YUV
Субдискретизация насыщенности : 4:2:0
Битовая глубина : 8 бит
Тип развёртки : Прогрессивная
Метод сжатия : С потерями
Бит/(Пиксели*Кадры) : 0.332
Размер потока : 1,58 Гбайт (72%)
Библиотека кодирования : XviD 65
Аудио #1
Идентификатор : 1
Формат : AC-3
Формат/Информация : Audio Coding 3
Расширение режима : CM (complete main)
Параметр Endianness формата : Big
Идентификатор кодека : 2000
Продолжительность : 1 ч. 39 м.
Вид битрейта : Постоянный
Битрейт : 192 Кбит/сек
Каналы : 2 канала
Расположение каналов : Front: L R
Частота : 48,0 КГц
Битовая глубина : 16 бит
Метод сжатия : С потерями
Размер потока : 137 Мбайт (6%)
Выравнивание : Разделение по промежуткам
Продолжительность промежутка : 42 мс. (1,01 видеокадр)
Время предзагрузки промежутка : 500 мс.
Аудио #2
Идентификатор : 2
Формат : AC-3
Формат/Информация : Audio Coding 3
Расширение режима : CM (complete main)
Параметр Endianness формата : Big
Идентификатор кодека : 2000
Продолжительность : 1 ч. 40 м.
Вид битрейта : Постоянный
Битрейт : 192 Кбит/сек
Каналы : 2 канала
Расположение каналов : Front: L R
Частота : 48,0 КГц
Битовая глубина : 16 бит
Метод сжатия : С потерями
Размер потока : 138 Мбайт (6%)
Выравнивание : Разделение по промежуткам
Продолжительность промежутка : 42 мс. (1,00 видеокадр)
Время предзагрузки промежутка : 500 мс.
Аудио #3
Идентификатор : 3
Формат : AC-3
Формат/Информация : Audio Coding 3
Расширение режима : CM (complete main)
Параметр Endianness формата : Big
Идентификатор кодека : 2000
Продолжительность : 1 ч. 40 м.
Вид битрейта : Постоянный
Битрейт : 448 Кбит/сек
Каналы : 6 каналов
Расположение каналов : Front: L C R, Side: L R, LFE
Частота : 48,0 КГц
Битовая глубина : 16 бит
Метод сжатия : С потерями
Размер потока : 323 Мбайт (14%)
Выравнивание : Разделение по промежуткам
Продолжительность промежутка : 42 мс. (1,00 видеокадр)
Время предзагрузки промежутка : 500 мс.

-
* Присутствуют плавающие шторки по всем сторонам картинки, причем разных длин.
[teatrix.ru].t4374.torrent 
Торрент: Зарегистрирован [ 2015-10-08 00:27 ] · B070DE57C3DBE224CC7695CB4D39F6209E3ED6B8

Скачать .torrent

Скачать

12 KB

Статус: проверено
Скачан: 0 раз
Размер: 2.18 GB
terms.php



Быстрый ответ

Имя:

      
Для отправки сообщений необходимо включить JavaScript
Показать сообщения:    

Текущее время: 05-Дек 21:39

Часовой пояс: UTC + 3


Вы можете начинать темы
Вы можете отвечать на сообщения
Вы не можете редактировать свои сообщения
Вы не можете удалять свои сообщения
Вы не можете голосовать в опросах
Вы не можете прикреплять файлы к сообщениям
Вы можете скачивать файлы