На территории Бергмана / Trespassing Bergman (Джейн Магнуссон / Jane Magnusson, Хайнек Паллас / Hynek Pallas) [2013, Швеция, документальный, биографический, кинематограф, DVB] MVO (24ДОК)


Статистика раздачи [Обновить пиров]
Размер:  1.71 GB   |    Зарегистрирован:  1 год 1 месяц   |    Скачан:  0 раз

Полного источника не было: Никогда

 
   
 
 
 

[Цитировать]

На территории Бергмана
Trespassing Bergman- Страна: Швеция
Жанр: документальный, биографический, кинематограф
Год выпуска: 2013
Продолжительность: 01:46:59
Перевод: Профессиональный (многоголосый закадровый) 24ДОК
Cубтитры: нетРежиссер: Джейн Магнуссон / Jane Magnusson, Хайнек Паллас / Hynek Pallas
В ролях: Ингмар Бергман (архивные съемки), Вуди Аллен, Френсис Форд Коппола, Уэс Андерсон, Уэс Крэйвен, Роберт де Ниро, Клер Дени, Лора Дерн, Алехандро Гонсалес Иньярриту, Михаэль Ханеке, Холли Хантер, Такеши Китано, Джон Лэндис, Энг Ли, Изабелла Росселлини, Мартин Скорсезе, Ридли Скотт, Томас Винтенберг, Ларс фон Триер
Описание: О жизни Ингмара Бергмана и его ключевых фильмах рассказывают выдающиеся режиссеры и актёры современности. Интервью с Михаэлем Ханеке, Мартином Скорсезе, Ларсом фон Триером, Изабеллой Росселлини и Вуди Алленом, снятые на острове Фаро – последнем прибежище Бергмана, переплетаются с редкими кадрами со съемочных площадок шедевров шведского киномастера. (анонс канала 24ДОК)
Фильм скомпилирован из 6-серийного документального цикла "Bergman’s Video" (2012), каждая из 45-минутных серий которого посвящалась теме, присущей творчеству Бергмана – это: Страх, Молчание, Комедия, Смерть, Приключение, Отчуждение. Для работы над циклом режиссеры получили доступ к частному архиву Бергмана и к 1'500 фильмам из его личной коллекции.
Доп. информация: 24ДОК DVB-S
Участник Venice Film Festival 2013.

Качество видео: DVB
Формат видео: MKV
Видео: MPEG Video 2, 720x576@768x576 (4:3), 25 fps, ~2048 kbps avg, 0.198 bit/pixel
Аудио: MPEG Audio 2, 2 ch, 48 kHz, ~192.00 kbps avg

MediaInfo

ОбщееУникальный идентификатор : 231470574711296281714310882807807890619 (0xAE239C71949B6A54BD06047878B254BB)Полное имя : E:\My Torrents 2\[apreder]Trespassing_Bergman(2013)DVB.mkvФормат : MatroskaВерсия формата : Version 2Размер файла : 1,71 ГбайтПродолжительность : 1 ч. 46 м.Режим общего битрейта : ПеременныйОбщий поток : 2286 Кбит/секДата кодирования : UTC 2014-12-28 17:13:45Программа кодирования : mkvmerge v7.4.0 ('Circles') 64bit built on Dec 12 2014 12:19:56Библиотека кодирования : libebml v1.3.0 + libmatroska v1.4.1
ВидеоИдентификатор : 1Формат : MPEG VideoВерсия формата : Version 2Профиль формата : Main@MainПараметр BVOP формата : ДаПараметр матрицы формата : ВыборочнаяПараметр GOP формата : VariableFormat_Settings_PictureStructure : FrameИдентификатор кодека : V_MPEG2Идентификатор кодека/Информация : MPEG 1 or 2 VideoПродолжительность : 1 ч. 46 м.Вид битрейта : ПеременныйБитрейт : 2048 Кбит/секШирина : 720 пикселейВысота : 576 пикселейСоотношение сторон : 4:3Режим частоты кадров : ПостоянныйЧастота кадров : 25,000 кадров/секСтандарт вещания : PALЦветовое пространство : YUVСубдискретизация насыщенности : 4:2:0Битовая глубина : 8 битТип развёртки : ЧересстрочнаяПорядок развёртки : Верхнее поле первоеМетод сжатия : С потерямиБит/(Пиксели*Кадры) : 0.198Временной код первого кадра : 00:00:00:00Оригинал временного кода : Group of pictures headerРазмер потока : 1,53 Гбайт (90%)Default : ДаForced : НетGop_OpenClosed_FirstFrame : Closed
АудиоИдентификатор : 2Формат : MPEG AudioВерсия формата : Version 1Профиль формата : Layer 2Идентификатор кодека : A_MPEG/L2Идентификатор кодека/Подсказка : MP2Продолжительность : 1 ч. 46 м.Вид битрейта : ПостоянныйБитрейт : 192 Кбит/секКаналы : 2 каналаЧастота : 48,0 КГцМетод сжатия : С потерямиРазмер потока : 147 Мбайт (8%)Язык : RussianDefault : ДаForced : Нет

Скриншот c названием фильма

Скриншоты


Резервные скриншоты


-[2'012]
[teatrix.ru].t4375.torrent 
Торрент: Зарегистрирован [ 2015-10-08 00:27 ] · E4A2B9251BF79B9DB421151963AEF38326CB39F4

Скачать .torrent

Скачать

18 KB

Статус: проверено
Скачан: 0 раз
Размер: 1.71 GB
terms.php



Быстрый ответ

Имя:

      
Для отправки сообщений необходимо включить JavaScript
Показать сообщения:    

Текущее время: 03-Дек 22:45

Часовой пояс: UTC + 3


Вы можете начинать темы
Вы можете отвечать на сообщения
Вы не можете редактировать свои сообщения
Вы не можете удалять свои сообщения
Вы не можете голосовать в опросах
Вы не можете прикреплять файлы к сообщениям
Вы можете скачивать файлы