Водный балет / Ballet Aquatique (Рауль Руис / Raoul Ruiz) [2011, Франция, абсурдно-популярный фильм, DVDRip] + Sub Rus + Original Fre


Статистика раздачи [Обновить пиров]
Размер:  828 MB   |    Зарегистрирован:  1 год 2 месяца   |    Скачан:  1 раз

Полного источника не было: 3 месяца 17 дней

 
   
 
 
 

[Цитировать]

Водный балет / Ballet Aquatique
Страна: Франция
Жанр: абсурдно-популярный фильм
Год выпуска: 2011
Продолжительность: 00:53:10
Перевод: Субтитры
Cубтитры: русские, английские
Оригинальная аудиодорожка: французский
Режиссер: Рауль Руис / Raoul Ruiz
В ролях: Рауль Руис, Мельвиль Пупо, Франсуа Марголин, кошка, пять рыбок, осьминог и несколько креветок
Описание: Профессор Этьен Матрас задается вопросом - возможно ли со всей строгостью и точностью определить количество рыбок в домашних аквариумах? Ведь иногда насчитывается пять, иногда шесть, иногда три. Со временем в фундаментальное исследование втягиваются коллеги, друзья и родственники ученого. А также дети, прихожане католической церкви и аквариумные осьминоги. Так формулируется принцип акватической неопределенности.
Своеобразный оммаж Жану Пенлеве, одному из родоначальников научно-популярного кино, снятый Руисом в рамках программы "Бобур, последний мейджор" в Центре Помпиду.
Сэмпл: http://multi-up.com/1022032
Качество видео: DVDRip
Формат видео: MKV
Видео: x264, 720x480 ~> 853x480, 16:9, 23.976 fps, 1 985 Kbps
Аудио: AC-3, 192 Kbps, 2.0ch
Формат субтитров: softsub (SRT)

MediaInfo

General
Unique ID : 172682651379338177816786451959640088385 (0x81E9780AEDD9E21D9D9E62573CA1DF41)
Complete name : D:\torrent\Raoul Ruiz - (2012) Ballet Aquatique\Raoul Ruiz - (2012) Ballet Aquatique.mkv
Format : Matroska
Format version : Version 4 / Version 2
File size : 828 MiB
Duration : 53mn 9s
Overall bit rate : 2 178 Kbps
Encoded date : UTC 2013-08-17 14:56:00
Writing application : mkvmerge v6.3.0 ('You can't stop me!') built on Jun 28 2013 20:09:41
Writing library : libebml v1.3.0 + libmatroska v1.4.0
Video
ID : 1
Format : AVC
Format/Info : Advanced Video Codec
Format profile : High@L3.1
Format settings, CABAC : Yes
Format settings, ReFrames : 7 frames
Codec ID : V_MPEG4/ISO/AVC
Duration : 53mn 9s
Bit rate : 1 985 Kbps
Width : 720 pixels
Height : 480 pixels
Display aspect ratio : 16:9
Original display aspect ratio : 16:9
Frame rate : 23.976 fps
Standard : NTSC
Color space : YUV
Chroma subsampling : 4:2:0
Bit depth : 8 bits
Scan type : Progressive
Bits/(Pixel*Frame) : 0.240
Stream size : 739 MiB (89%)
Writing library : x264 core 133 r2334 a3ac64b
Encoding settings : cabac=1 / ref=7 / deblock=1:-3:-3 / analyse=0x3:0x133 / me=umh / subme=9 / psy=1 / psy_rd=1.00:0.00 / mixed_ref=1 / me_range=24 / chroma_me=1 / trellis=2 / 8x8dct=1 / cqm=0 / deadzone=21,11 / fast_pskip=1 / chroma_qp_offset=-2 / threads=3 / lookahead_threads=1 / sliced_threads=0 / nr=0 / decimate=1 / interlaced=0 / bluray_compat=0 / constrained_intra=0 / bframes=5 / b_pyramid=2 / b_adapt=2 / b_bias=0 / direct=1 / weightb=1 / open_gop=0 / weightp=2 / keyint=240 / keyint_min=23 / scenecut=40 / intra_refresh=0 / rc_lookahead=60 / rc=2pass / mbtree=1 / bitrate=1985 / ratetol=1.0 / qcomp=0.60 / qpmin=0 / qpmax=69 / qpstep=4 / cplxblur=20.0 / qblur=0.5 / ip_ratio=1.40 / aq=1:1.00
Language : English
Default : Yes
Forced : No
Audio
ID : 2
Format : AC-3
Format/Info : Audio Coding 3
Mode extension : CM (complete main)
Format settings, Endianness : Big
Codec ID : A_AC3
Duration : 53mn 9s
Bit rate mode : Constant
Bit rate : 192 Kbps
Channel(s) : 2 channels
Channel positions : Front: L R
Sampling rate : 48.0 KHz
Bit depth : 16 bits
Compression mode : Lossy
Stream size : 73.0 MiB (9%)
Default : Yes
Forced : No
Text
ID : 3
Format : VobSub
Muxing mode : zlib
Codec ID : S_VOBSUB
Codec ID/Info : The same subtitle format used on DVDs
Language : English
Default : Yes
Forced : No

Фрагмент субтитров

165
00:38:19,568 --> 00:38:22,106
Профессор Этьен Матрас,
166
00:38:22,463 --> 00:38:25,047
после тщательных наблюдений
167
00:38:28,206 --> 00:38:32,182
за рыбками в своем аквариуме
168
00:38:34,729 --> 00:38:39,364
пришел к выводу, что не в состоянии
подсчитать количество рыбок.
169
00:38:40,134 --> 00:38:43,681
Он припоминал, что купил четыре штуки.
170
00:38:44,836 --> 00:38:47,956
Но иногда насчитывал пять,
171
00:38:48,549 --> 00:38:53,371
иногда - шесть, а иногда - три.
172
00:38:57,474 --> 00:39:02,114
Он привез свой аквариум
173
00:39:04,006 --> 00:39:06,069
в лабораторию,
174
00:39:08,524 --> 00:39:11,088
где люди уже занимались,
175
00:39:11,797 --> 00:39:13,715
люди проводили...
176
00:39:16,692 --> 00:39:19,238
Люди проводили
177
00:39:21,426 --> 00:39:23,286
сложные опыты
178
00:39:25,002 --> 00:39:28,428
с осьминогами...
179
00:39:31,172 --> 00:39:33,050
С осьминогами,
180
00:39:35,233 --> 00:39:39,657
блюдущими монодиету.
181
00:39:41,639 --> 00:39:43,339
Они питались одними
182
00:39:44,905 --> 00:39:47,246
водными пузырьками.
183
00:39:54,857 --> 00:39:58,424
Ему подумалось
смешать осьминогов
184
00:39:59,523 --> 00:40:02,480
с рыбками.
185
00:40:03,835 --> 00:40:07,699
И он был потрясен тем, что увидел.
186
00:40:08,816 --> 00:40:10,727
Осьминоги
187
00:40:11,891 --> 00:40:16,244
испугались цветных рыбок.
188
00:40:18,548 --> 00:40:23,082
Им не понравилась
сама идея цветных рыбок.
189
00:40:24,584 --> 00:40:29,478
Как известно,
осьминоги видят все черно-белым,
190
00:40:30,249 --> 00:40:32,718
но почему они перепугались цвета?
191
00:40:33,424 --> 00:40:36,060
Что же такого в цвете рыбок,
192
00:40:36,704 --> 00:40:39,693
что ужаснуло
193
00:40:40,763 --> 00:40:44,927
осьминогов, хорошо сложенных,
194
00:40:46,037 --> 00:40:48,891
крепеньких и поджарых?

Скриншот c названием фильма

Скриншоты

[teatrix.ru].t4377.torrent 
Торрент: Зарегистрирован [ 2015-10-08 00:27 ] · 040D55506D6436F852ADD555D21D303CD7EDEF6D

Скачать .torrent

Скачать

17 KB

Статус: проверено
Скачан: 1 раз
Размер: 828 MB
terms.php



Быстрый ответ

Имя:

      
Для отправки сообщений необходимо включить JavaScript
Показать сообщения:    

Текущее время: 09-Дек 08:52

Часовой пояс: UTC + 3


Вы можете начинать темы
Вы можете отвечать на сообщения
Вы не можете редактировать свои сообщения
Вы не можете удалять свои сообщения
Вы не можете голосовать в опросах
Вы не можете прикреплять файлы к сообщениям
Вы можете скачивать файлы