Человек без имени / Wu ming zhe / L’homme sans nom / Man With No Name (Ван Бин / Bing Wang) [2009(2010), Китай, документальный, DVDRip]


Статистика раздачи [Обновить пиров]
Размер:  1.03 GB   |    Зарегистрирован:  1 год 1 месяц   |    Скачан:  0 раз

Полного источника не было: Никогда

 
   
 
 
 

[Цитировать]

Человек без имени / Wu ming zhe / L’homme sans nom / Man With No Name
Страна: Китай
Жанр: документальный
Год выпуска: 2009(2010)
Продолжительность: 01:32:51
Перевод: Не требуется
Cубтитры: нет
Оригинальная аудиодорожка: нет
Режиссер: Ван Бин / Bing Wang
В ролях: Человек без имени/L’homme sans nom
Описание: В холме была нора, а в норе жил человек. Не то, чтобы вдалеке от людей, – слышно, что рядом трасса и ездят машины – но и не вместе с ними. Он возделывает землю, таскает воду, ломает ветки для костра. Выращивает кукурузу и тыквы. Готовит и ест простую еду. Лепит глиняную избушку-мазанку. У человека нет имени – это и не нужно, когда живёшь один, вне общества, в местности, где никто тебя не окликнет.
Ван Бин не даёт зрителю никакой точки отсчёта или мало-мальски твёрдой земли, чтобы от неё оттолкнуться, – в фильме нет ни закадрового голоса, ни нарратива (повседневность как история), ни маркеров, которые позволили бы определить фильм как критику всеобщей отчуждённости, личной некоммуникабельности или китайской действительности. Ван Бин просто неотвязно ходит за человеком без имени и запечатлевает его труд и тяжёлую мрачную жизнь на грани выживания.
Доп. информация: Файл взят с Карагарги, за что благодарим tubers.
Сэмпл: http://multi-up.com/1008156
Качество видео: DVDRip
Формат видео: AVI
Видео: XviD build 46 at 1567 kbps, 0.22 bit/pixel, 704x400 (1.76:1) at 25 fps
Аудио: MPEG Layer 3 at 128.00 kbps, 2 ch, 48 kHz

MediaInfo

Формат : AVI
Формат/Информация : Audio Video Interleave
Размер файла : 1,03 Гбайт
Продолжительность : 1 ч. 32 м.
Общий поток : 1581 Кбит/сек
Видео
Идентификатор : 0
Формат : MPEG-4 Visual
Профиль формата : Simple@L3
Параметр BVOP формата : Нет
Параметр QPel формата : Нет
Параметр GMC формата : Без точки перехода
Параметр матрицы формата : Default (H.263)
Идентификатор кодека : XVID
Идентификатор кодека/Подсказка : XviD
Продолжительность : 1 ч. 32 м.
Битрейт : 1440 Кбит/сек
Ширина : 704 пикс.
Высота : 400 пикс.
Соотношение сторон : 16:9
Частота кадров : 25,000 кадр/сек
Цветовое пространство : YUV
Подвыборка цветности : 4:2:0
Битовая глубина : 8 бит
Тип развёртки : Прогрессивная
Метод сжатия : С потерями
Бит/(Пиксели*Кадры) : 0.205
Размер потока : 956 Мбайт (91%)
Библиотека кодирования : XviD 1.1.2 (UTC 2006-11-01)
Аудио
Идентификатор : 1
Формат : MPEG Audio
Версия формата : Version 1
Профиль формата : Layer 3
Режим : Joint stereo
Расширение режима : MS Stereo
Идентификатор кодека : 55
Идентификатор кодека/Подсказка : MP3
Продолжительность : 1 ч. 32 м.
Вид битрейта : Постоянный
Битрейт : 128 Кбит/сек
Канал(ы) : 2 канала(ов)
Частота : 48,0 КГц
Метод сжатия : С потерями
Размер потока : 85,0 Мбайт (8%)
Выравнивание : Разделение по промежуткам
Продолжительность промежутка : 24 мс. (0,60 видеокадр)
Время предзагрузки промежутка : 373 ms
Библиотека кодирования : LAME3.98

Скриншот c названием фильма

Скриншоты




[teatrix.ru].t4381.torrent 
Торрент: Зарегистрирован [ 2015-10-08 00:27 ] · E71992372D2583E0AF9918E7F1F8B4D72BC2BE17

Скачать .torrent

Скачать

21 KB

Статус: проверено
Скачан: 0 раз
Размер: 1.03 GB
terms.php



Быстрый ответ

Имя:

      
Для отправки сообщений необходимо включить JavaScript
Показать сообщения:    

Текущее время: 03-Дек 16:46

Часовой пояс: UTC + 3


Вы можете начинать темы
Вы можете отвечать на сообщения
Вы не можете редактировать свои сообщения
Вы не можете удалять свои сообщения
Вы не можете голосовать в опросах
Вы не можете прикреплять файлы к сообщениям
Вы можете скачивать файлы