Модильяни: уникальные подделки / Modigliani\'s Genuine Fake Heads / Le vere false teste di Modigliani (Джованни Донфранческо / Giovanni Donfrancesco) [2011, Италия, Франция, Финляндия, Швеция, документальный, искусство, DVB] DVO (Селена Интернешнл)


Статистика раздачи [Обновить пиров]
Размер:  812 MB   |    Зарегистрирован:  1 год 2 месяца   |    Скачан:  1 раз

Полного источника не было: 16 дней

 
   
 
 
 

[Цитировать]

Модильяни: уникальные подделки
Modigliani's Genuine Fake Heads- Страна: Италия, Франция, Финляндия, Швеция
Жанр: документальный, искусство
Год выпуска: 2011
Продолжительность: 00:52:33Перевод: Профессиональный (двухголосый закадровый) Кинокомпания "Селена Интернешнл" по заказу телеканала "24ДОК"
Cубтитры: нет
Режиссер: Джованни Донфранческо / Giovanni Donfrancesco
В ролях: Пьетро Луридиана / Pietro Luridiana, Микеле Гелардуччи / Michele Ghelarducci, Пьерфранческо Ферруччи / Pierfrancesco Ferrucci
Описание: Италия, лето 1984 года. В Ливорно празднуется столетие со дня рождения одного из величайших художников XX века Амедео Модильяни, уроженца этого города. История о том, как невинный розыгрыш в исполнении трех студентов превратился в мистификацию века. (анонс канала "24ДОК")
Доп. информация: 24ДОК DVB-S
Номинация на премию "Итальянский Золотой глобус / Globi d'Oro" (Italian Golden Globe Awards) 2012 за лучший документальный фильм, вручаемую Ассоциацией иностранной кинопрессы, аккредитованной в Италии.

Качество видео: DVB
Формат видео: MKV
Видео: MPEG Video 2, 720x576@768x576 (4:3), 25 fps, ~1926 kbps avg, 0.186 bit/pixel
Аудио: MPEG Audio 2, 2 ch, 48 kHz, ~192.00 kbps avg

MediaInfo

ОбщееУникальный идентификатор : 212691705351889669512359700756080442716 (0xA002EEB378642BE4BB078F6290BD3D5C)Полное имя : E:\My Torrents 2\[apreder]Modigliani's_Genuine_Fake_Heads(2011)DVB.mkvФормат : MatroskaВерсия формата : Version 2Размер файла : 812 МбайтПродолжительность : 52 м.Режим общего битрейта : ПеременныйОбщий поток : 2161 Кбит/секДата кодирования : UTC 2014-10-31 18:26:02Программа кодирования : mkvmerge v7.3.0 ('Nouages') 64bit built on Oct 22 2014 18:53:34Библиотека кодирования : libebml v1.3.0 + libmatroska v1.4.1
ВидеоИдентификатор : 1Формат : MPEG VideoВерсия формата : Version 2Профиль формата : Main@MainПараметр BVOP формата : НетПараметр матрицы формата : ВыборочнаяFormat_Settings_PictureStructure : FrameИдентификатор кодека : V_MPEG2Идентификатор кодека/Информация : MPEG 1 or 2 VideoПродолжительность : 52 м.Вид битрейта : ПеременныйБитрейт : 1926 Кбит/секМаксимальный битрейт : 5304 Кбит/секШирина : 720 пикселейВысота : 576 пикселейСоотношение сторон : 4:3Режим частоты кадров : ПостоянныйЧастота кадров : 25,000 кадров/секСтандарт вещания : PALЦветовое пространство : YUVСубдискретизация насыщенности : 4:2:0Битовая глубина : 8 битТип развёртки : ЧересстрочнаяПорядок развёртки : Верхнее поле первоеМетод сжатия : С потерямиБит/(Пиксели*Кадры) : 0.186Временной код первого кадра : 00:00:00:00Оригинал временного кода : Group of pictures headerРазмер потока : 724 Мбайт (89%)Default : ДаForced : Нет
АудиоИдентификатор : 2Формат : MPEG AudioВерсия формата : Version 1Профиль формата : Layer 2Идентификатор кодека : A_MPEG/L2Идентификатор кодека/Подсказка : MP2Продолжительность : 52 м.Вид битрейта : ПостоянныйБитрейт : 192 Кбит/секКаналы : 2 каналаЧастота : 48,0 КГцМетод сжатия : С потерямиРазмер потока : 72,2 Мбайт (9%)Язык : RussianDefault : ДаForced : Нет

Скриншот c названием фильма

Скриншоты


Резервные скриншоты


-[1'863]
[teatrix.ru].t4382.torrent 
Торрент: Зарегистрирован [ 2015-10-08 00:27 ] · 0E828A6A674E20A7428E17FC1F5B11862B836984

Скачать .torrent

Скачать

16 KB

Статус: проверено
Скачан: 1 раз
Размер: 812 MB
terms.php



Быстрый ответ

Имя:

      
Для отправки сообщений необходимо включить JavaScript
Показать сообщения:    

Текущее время: 10-Дек 23:31

Часовой пояс: UTC + 3


Вы можете начинать темы
Вы можете отвечать на сообщения
Вы не можете редактировать свои сообщения
Вы не можете удалять свои сообщения
Вы не можете голосовать в опросах
Вы не можете прикреплять файлы к сообщениям
Вы можете скачивать файлы