Таблоид / Tabloid / Tabloid: Sex in Chains (Эррол Моррис / Errol Morris) [2010, США, документальный, DVB] DVO (24ДОК)


Статистика раздачи [Обновить пиров]
Размер:  1.02 GB   |    Зарегистрирован:  1 год 1 месяц   |    Скачан:  0 раз

Полного источника не было: Никогда

 
   
 
 
 

[Цитировать]

Таблоид
Tabloid- Страна: США
Жанр: документальный
Год выпуска: 2010
Продолжительность: 01:27:25
Перевод: Профессиональный (двухголосый закадровый) 24ДОК
Cубтитры: нет
Режиссер: Эррол Моррис / Errol MorrisВ ролях: Джойс МакКинни, Питер Тори, Трой Вильямс, Джексон Шоу
Описание: Вступительное слово Ольги Дыховичной, директора фестиваля "2morrow/Завтра".
Фильм оскароносца Эррола Морриса "Таблоид" сопровождает бывшую "королеву красоты" Джойс МакКинни в её необыкновенных приключениях, настолько странных, что в сравнении с ними меркнет любой художественный вымысел. Бывшая "королева красоты" живет любовью к мужчине своей мечты. Эта любовь влечёт её через весь земной шар и приводит прямиком на первые полосы британских таблоидов. Этот поход во имя любви заводит Джойс в сюрреалистический мир: вооруженное похищение, мормон в наручниках, чудаковатые сообщники, мир бандажа и грёз о браке, заключённом на небесах... (анонс канала "24ДОК")
Доп. информация: 24ДОК DVB-S
Награды: приз за лучший документальный фильм San Francisco Film Critics Circle 2011; 2-й приз за лучший документальный фильм Southeastern Film Critics Association Awards 2011; 2-й приз за лучший документальный фильм St. Louis Film Critics Association, US 2011; др. награды.

Качество видео: DVB
Формат видео: MKV
Видео: MPEG Video 2, 720x576@768x576 (4:3), 25 fps, ~1447 kbps avg, 0.140 bit/pixel
Аудио: MPEG Audio 2, 2 ch, 48 kHz, ~192.00 kbps avg

MediaInfo

ОбщееУникальный идентификатор : 240016432949930713274123979695952551080 (0xB4917BC9096C61F2A86D23398744DCA8)Полное имя : E:\My Torrents 2\[apreder]Tabloid(2010)DVB.mkvФормат : MatroskaВерсия формата : Version 2Размер файла : 1,02 ГбайтПродолжительность : 1 ч. 27 м.Режим общего битрейта : ПеременныйОбщий поток : 1672 Кбит/секДата кодирования : UTC 2014-10-31 14:58:08Программа кодирования : mkvmerge v7.3.0 ('Nouages') 64bit built on Oct 22 2014 18:53:34Библиотека кодирования : libebml v1.3.0 + libmatroska v1.4.1
ВидеоИдентификатор : 1Формат : MPEG VideoВерсия формата : Version 2Профиль формата : Main@MainПараметр BVOP формата : НетПараметр матрицы формата : ВыборочнаяFormat_Settings_PictureStructure : FrameИдентификатор кодека : V_MPEG2Идентификатор кодека/Информация : MPEG 1 or 2 VideoПродолжительность : 1 ч. 27 м.Вид битрейта : ПеременныйБитрейт : 1447 Кбит/секМаксимальный битрейт : 5098 Кбит/секШирина : 720 пикселейВысота : 576 пикселейСоотношение сторон : 4:3Режим частоты кадров : ПостоянныйЧастота кадров : 25,000 кадров/секСтандарт вещания : PALЦветовое пространство : YUVСубдискретизация насыщенности : 4:2:0Битовая глубина : 8 битТип развёртки : ЧересстрочнаяПорядок развёртки : Верхнее поле первоеМетод сжатия : С потерямиБит/(Пиксели*Кадры) : 0.140Временной код первого кадра : 00:00:00:00Оригинал временного кода : Group of pictures headerРазмер потока : 905 Мбайт (87%)Default : ДаForced : Нет
АудиоИдентификатор : 2Формат : MPEG AudioВерсия формата : Version 1Профиль формата : Layer 2Идентификатор кодека : A_MPEG/L2Идентификатор кодека/Подсказка : MP2Продолжительность : 1 ч. 27 м.Вид битрейта : ПостоянныйБитрейт : 192 Кбит/секКаналы : 2 каналаЧастота : 48,0 КГцМетод сжатия : С потерямиРазмер потока : 120 Мбайт (11%)Язык : RussianDefault : ДаForced : Нет

Скриншот c названием фильма

Скриншоты


Резервные скриншоты


-[1'861]
[teatrix.ru].t4383.torrent 
Торрент: Зарегистрирован [ 2015-10-08 00:27 ] · 8B9A4D3ACD6F6E47F33BACC0EACB7D12142DC060

Скачать .torrent

Скачать

11 KB

Статус: проверено
Скачан: 0 раз
Размер: 1.02 GB
terms.php



Быстрый ответ

Имя:

      
Для отправки сообщений необходимо включить JavaScript
Показать сообщения:    

Текущее время: 05-Дек 11:28

Часовой пояс: UTC + 3


Вы можете начинать темы
Вы можете отвечать на сообщения
Вы не можете редактировать свои сообщения
Вы не можете удалять свои сообщения
Вы не можете голосовать в опросах
Вы не можете прикреплять файлы к сообщениям
Вы можете скачивать файлы