Лондон – современный Вавилон / London - The Modern Babylon (Джульен Темпл / Julien Temple) [2012, Великобритания, документальный, DVB] DVO


Статистика раздачи [Обновить пиров]
Размер:  3.6 GB   |    Зарегистрирован:  1 год 2 месяца   |    Скачан:  0 раз

Полного источника не было: Никогда

 
   
 
 
 

[Цитировать]

Лондон – современный Вавилон
London - The Modern Babylon- Страна: Великобритания
Жанр: документальный
Год выпуска: 2012
Продолжительность: 02:05:54Перевод: Профессиональный (двухголосый закадровый) по заказу Киноторговой компании "Вольга"
Cубтитры: нет
Режиссер: Джульен Темпл / Julien Temple
В ролях: Кит Аллен, Майкл Гэмбон, Энди Серкис, Дэвид Боуи, Аллен Гинзберг, Ли Бауэри
Описание: Лондон нередко называют современным Вавилоном. Он многолик, многонационален и неоднозначен. Этот документальный фильм рассказывает не только о коренных жителях Лондона, но и об истории иммигрантов. Архивные кинопленки начала ХХ века, голоса лондонцев прошлого и настоящего и популярная музыка прошлых лет помогут совершить незабываемое путешествие во времени к сердцу Лондона.
Картина мастера музыкальной документалистики Джульена Тэмпла – возможно, его самая амбициозная и разносторонняя лента. Просмотрев 6'000 часов архивных материалов, режиссер соорудил фильм-коллаж о Лондоне, сравнив свою работу с путешествием во времени. Он имел возможность соединить в одном повествовании первые кадры начала столетия, отрывки из пары десятков ключевых фильмов, хронику и собственные съемки. Получился не просто портрет города, но его биография, рассказ о том, как место и люди, в нем живущие, навсегда меняют друг друга. Тэмпл улавливает исторические рифмы и закономерности, увязывает культуру с социальными событиями (мировые войны, правление Тэтчер, недавние погромы), словом, пишет настоящую симфонию города. И, конечно, это не энциклопедическое высказывание, а очень личное и пристрастное.
Доп. информация: 24ДОК DVB-S
Награды: номинация на лучший документальный фильм British Independent Film Awards 2012; номинация на приз "Феликс" за лучший документальный фильм European Film Awards 2012; номинация на документальный фильм года London Critics Circle Film Awards 2013.

Качество видео: DVB
Формат видео: MKV
Видео: MPEG Video 2, 720x576@768x576 (4:3), 25 fps, ~3818 kbps avg, 0.368 bit/pixel
Аудио: MPEG Audio 2, 2 ch, 48 kHz, ~192.00 kbps avg

MediaInfo

ОбщееУникальный идентификатор : 172052166579187140768815942405475655323 (0x81700ABDF75F93408A4B507A320DDE9B)Полное имя : E:\My Torrents 2\[apreder]London_The_Modern_Babylon(2012)DVB.mkvФормат : MatroskaВерсия формата : Version 2Размер файла : 3,60 ГбайтПродолжительность : 2 ч. 5 м.Режим общего битрейта : ПеременныйОбщий поток : 4091 Кбит/секДата кодирования : UTC 2014-10-29 16:36:58Программа кодирования : mkvmerge v7.3.0 ('Nouages') 64bit built on Oct 22 2014 18:53:34Библиотека кодирования : libebml v1.3.0 + libmatroska v1.4.1
ВидеоИдентификатор : 1Формат : MPEG VideoВерсия формата : Version 2Профиль формата : Main@MainПараметр BVOP формата : НетПараметр матрицы формата : ВыборочнаяFormat_Settings_PictureStructure : FrameИдентификатор кодека : V_MPEG2Идентификатор кодека/Информация : MPEG 1 or 2 VideoПродолжительность : 2 ч. 5 м.Вид битрейта : ПеременныйБитрейт : 3818 Кбит/секМаксимальный битрейт : 7129 Кбит/секШирина : 720 пикселейВысота : 576 пикселейСоотношение сторон : 4:3Режим частоты кадров : ПостоянныйЧастота кадров : 25,000 кадров/секСтандарт вещания : PALЦветовое пространство : YUVСубдискретизация насыщенности : 4:2:0Битовая глубина : 8 битТип развёртки : ЧересстрочнаяПорядок развёртки : Верхнее поле первоеМетод сжатия : С потерямиБит/(Пиксели*Кадры) : 0.368Временной код первого кадра : 00:00:00:00Оригинал временного кода : Group of pictures headerРазмер потока : 3,36 Гбайт (93%)Default : ДаForced : Нет
АудиоИдентификатор : 2Формат : MPEG AudioВерсия формата : Version 1Профиль формата : Layer 2Идентификатор кодека : A_MPEG/L2Идентификатор кодека/Подсказка : MP2Продолжительность : 2 ч. 5 м.Вид битрейта : ПостоянныйБитрейт : 192 Кбит/секКаналы : 2 каналаЧастота : 48,0 КГцМетод сжатия : С потерямиРазмер потока : 173 Мбайт (5%)Язык : RussianDefault : ДаForced : Нет

Скриншот c названием фильма

Скриншоты


Резервные скриншоты


-[1'859]
[teatrix.ru].t4384.torrent 
Торрент: Зарегистрирован [ 2015-10-08 00:27 ] · CE031700A2923FA7FBF2F850D16F4606BACA7FD4

Скачать .torrent

Скачать

19 KB

Статус: проверено
Скачан: 0 раз
Размер: 3.6 GB
terms.php



Быстрый ответ

Имя:

      
Для отправки сообщений необходимо включить JavaScript
Показать сообщения:    

Текущее время: 09-Дек 20:25

Часовой пояс: UTC + 3


Вы можете начинать темы
Вы можете отвечать на сообщения
Вы не можете редактировать свои сообщения
Вы не можете удалять свои сообщения
Вы не можете голосовать в опросах
Вы не можете прикреплять файлы к сообщениям
Вы можете скачивать файлы