В двух шагах от славы / Twenty Feet from Stardom (Морган Невилл / Morgan Neville) [2013, США, документальный, музыка, DVB] DVO (24ДОК)


Статистика раздачи [Обновить пиров]
Размер:  1.3 GB   |    Зарегистрирован:  1 год 2 месяца   |    Скачан:  0 раз

Полного источника не было: Никогда

 
   
 
 
 

[Цитировать]

В двух шагах от славы
Twenty Feet from Stardom- Страна: США
Жанр: документальный, музыка
Год выпуска: 2013
Продолжительность: 01:30:44
Перевод: Профессиональный (двухголосый закадровый) 24ДОК
Cубтитры: нет
Режиссер: Морган Невилл / Morgan NevilleВ ролях: Лу Адлер, Стефани Александр, Патти Остин, Крис Ботти, Дэвид Боуи, Рэй Чарльз, Шерил Кроу, Мик Джаггер, Бетт Мидлер, Ники Ричардс, Брюс Спрингстин, Стинг, Джулия Уотерс, Стиви Уандер
Описание: Оскароносный документальный фильм о бэк-вокалистах. Миллионы знают их голоса, но никто не знает их имена. Режиссер выводит из тени суперзвезд тех, кто привносит форму и стиль в популярную музыку и лучше других знает закулисье вокального мира. Для каждого из них – это шанс рассказать свою уникальную историю. (анонс кнала "24ДОК")
Доп. информация: 24ДОК DVB-S
Награды: "Оскар" 2014 за лучший документальный фильм; приз Independent Spirit Awards 2014 за лучший документальный фильм; Top Five Documentaries - National Board of Review, USA 2013; номинация на Гран-при жюри за лучший документальный фильм Sundance Film Festival 2013; приз "Eddie" за лучший монтаж документального фильма American Cinema Editors, USA 2014; др. награды.

Качество видео: DVB
Формат видео: MKV
Видео: MPEG Video 2, 720x576@768x576 (4:3), 25 fps, ~1816 kbps avg, 0.175 bit/pixel
Аудио: MPEG Audio 2, 2 ch, 48 kHz, ~192.00 kbps avg

MediaInfo

ОбщееУникальный идентификатор : 236458701079887591626775593179453107653 (0xB1E44A0FB342AF41938D0039246CADC5)Полное имя : E:\My Torrents 2\[apreder]Twenty_Feet_from_Stardom(2013)DVB.mkvФормат : MatroskaВерсия формата : Version 2Размер файла : 1,30 ГбайтПродолжительность : 1 ч. 30 м.Режим общего битрейта : ПеременныйОбщий поток : 2049 Кбит/секДата кодирования : UTC 2014-10-25 07:51:07Программа кодирования : mkvmerge v7.3.0 ('Nouages') 64bit built on Oct 22 2014 18:53:34Библиотека кодирования : libebml v1.3.0 + libmatroska v1.4.1
ВидеоИдентификатор : 1Формат : MPEG VideoВерсия формата : Version 2Профиль формата : Main@MainПараметр BVOP формата : НетПараметр матрицы формата : ВыборочнаяFormat_Settings_PictureStructure : FrameИдентификатор кодека : V_MPEG2Идентификатор кодека/Информация : MPEG 1 or 2 VideoПродолжительность : 1 ч. 30 м.Вид битрейта : ПеременныйБитрейт : 1816 Кбит/секМаксимальный битрейт : 5358 Кбит/секШирина : 720 пикселейВысота : 576 пикселейСоотношение сторон : 4:3Режим частоты кадров : ПостоянныйЧастота кадров : 25,000 кадров/секСтандарт вещания : PALЦветовое пространство : YUVСубдискретизация насыщенности : 4:2:0Битовая глубина : 8 битТип развёртки : ЧересстрочнаяПорядок развёртки : Верхнее поле первоеМетод сжатия : С потерямиБит/(Пиксели*Кадры) : 0.175Временной код первого кадра : 00:00:00:00Оригинал временного кода : Group of pictures headerРазмер потока : 1,15 Гбайт (89%)Default : ДаForced : Нет
АудиоИдентификатор : 2Формат : MPEG AudioВерсия формата : Version 1Профиль формата : Layer 2Идентификатор кодека : A_MPEG/L2Идентификатор кодека/Подсказка : MP2Продолжительность : 1 ч. 30 м.Вид битрейта : ПостоянныйБитрейт : 192 Кбит/секКаналы : 2 каналаЧастота : 48,0 КГцМетод сжатия : С потерямиРазмер потока : 125 Мбайт (9%)Язык : RussianDefault : ДаForced : Нет

Скриншот c названием фильма

Скриншоты


Резервные скриншоты


-[1'843]
[teatrix.ru].t4387.torrent 
Торрент: Зарегистрирован [ 2015-10-08 00:27 ] · 330A624365804F2A1DA79DB76C1AF22CB282AAA2

Скачать .torrent

Скачать

13 KB

Статус: проверено
Скачан: 0 раз
Размер: 1.3 GB
terms.php



Быстрый ответ

Имя:

      
Для отправки сообщений необходимо включить JavaScript
Показать сообщения:    

Текущее время: 10-Дек 06:08

Часовой пояс: UTC + 3


Вы можете начинать темы
Вы можете отвечать на сообщения
Вы не можете редактировать свои сообщения
Вы не можете удалять свои сообщения
Вы не можете голосовать в опросах
Вы не можете прикреплять файлы к сообщениям
Вы можете скачивать файлы