Смерть. Фильм о жизни / Death – A Series about Life / Døden - en serie om livet / Эпизоды 1-5 из 5 (Ейвинд Толас / Eivind Tolas / Eivind Tolås) [2014, Норвегия, документальный, философский, DVB] DVO (Глагол)


Статистика раздачи [Обновить пиров]
Размер:  4.57 GB   |    Зарегистрирован:  1 год 3 месяца   |    Скачан:  0 раз

Полного источника не было: Никогда

 
   
 
 
 

[Цитировать]

Смерть. Фильм о жизни
Death – A Series about Life- Страна: Норвегия
Жанр: документальный, философский
Год выпуска: 2014
Продолжительность: 04:23:59 (5 по ~00:52:00)Перевод: Профессиональный (двухголосый закадровый) Студия звукозаписи "Глагол" по заказу компании НКС Медиа, текст читают Марина Гладкая, Дмитрий Оргин
Cубтитры: нет
Режиссер: Ейвинд Толас / Eivind Tolås
В ролях: Андре Эллефсен / André Ellefsen (Peter D.), Эмили Эллефсен / Emilie Ellefsen (Tonje D.)
Описание: Ейвинд Толас - обладатель 3-х призов Каннского кинофестиваля 2003 за короткометражный фильм "Любовь есть Закон / Love Is the Law" - снял поразительную философско-саркастичную притчу о смерти.
Неотъемлемая часть жизни – смерть – с физической, духовной, творческой, коммерческой и политической точки зрения. Все мы смертны, но все мы по-разному воспринимаем смерть. Она пугает нас и вызывает скорбь, но может стать стимулом, источником дохода или даже развлечением. Некоторые изо всех сил стараются избежать ее, другие имеют с ней дело каждый день. Что такое смерть и как с ней ужиться? (анонс канала "24ДОК")
9-летняя Тонье, потерявшая мать, путешествует по миру с отцом в поисках ответа на вопрос: Что такое Смерть с метафизической точки зрения?
Доп. информация: DVB-S
Участник Bergen International Film Festival 2014; DOKFILM festival in Volda 2014.

Качество видео: DVB
Формат видео: MKV
Видео: MPEG Video 2, 720x576@768x576 (4:3), 25 fps, ~2344 kbps avg, 0.226 bit/pixel
Аудио: MPEG Audio 2, 2 ch, 48 kHz, ~192.00 kbps avg

Список выпусков/серий

Часть 1: Физическая смерть / Physical DeathЧасть 2: Жизнь после смерти / Life after DeathЧасть 3: Творческая сила смерти / Creative Power of DeathЧасть 4: Рынок смерти / Market of DeathЧасть 5: Политика смерти / Politics of Death

MediaInfo

ОбщееУникальный идентификатор : 175050285373541108355662800419628609345 (0x83B17569437408F0AE59B4ABE11D6F41)Полное имя : E:\My Torrents 2\[apreder]Death_A_Series_about_Life(2014)DVB\01. Physical_Death(2014)DVB.mkvФормат : MatroskaВерсия формата : Version 2Размер файла : 978 МбайтПродолжительность : 52 м.Режим общего битрейта : ПеременныйОбщий поток : 2588 Кбит/секДата кодирования : UTC 2014-10-18 16:49:24Программа кодирования : mkvmerge v7.2.0 ('On Every Street') 64bit built on Sep 13 2014 15:52:10Библиотека кодирования : libebml v1.3.0 + libmatroska v1.4.1
ВидеоИдентификатор : 1Формат : MPEG VideoВерсия формата : Version 2Профиль формата : Main@MainПараметр BVOP формата : НетПараметр матрицы формата : ВыборочнаяFormat_Settings_PictureStructure : FrameИдентификатор кодека : V_MPEG2Идентификатор кодека/Информация : MPEG 1 or 2 VideoПродолжительность : 52 м.Вид битрейта : ПеременныйБитрейт : 2344 Кбит/секМаксимальный битрейт : 5578 Кбит/секШирина : 720 пикселейВысота : 576 пикселейСоотношение сторон : 4:3Режим частоты кадров : ПостоянныйЧастота кадров : 25,000 кадров/секСтандарт вещания : PALЦветовое пространство : YUVСубдискретизация насыщенности : 4:2:0Битовая глубина : 8 битТип развёртки : ЧересстрочнаяПорядок развёртки : Верхнее поле первоеМетод сжатия : С потерямиБит/(Пиксели*Кадры) : 0.226Временной код первого кадра : 00:00:00:00Оригинал временного кода : Group of pictures headerРазмер потока : 886 Мбайт (91%)Default : ДаForced : Нет
АудиоИдентификатор : 2Формат : MPEG AudioВерсия формата : Version 1Профиль формата : Layer 2Идентификатор кодека : A_MPEG/L2Идентификатор кодека/Подсказка : MP2Продолжительность : 52 м.Вид битрейта : ПостоянныйБитрейт : 192 Кбит/секКаналы : 2 каналаЧастота : 48,0 КГцМетод сжатия : С потерямиРазмер потока : 72,5 Мбайт (7%)Язык : RussianDefault : ДаForced : Нет

Скриншот c названием фильма

Скриншоты


Резервные скриншоты


-[1'828]
[teatrix.ru].t4388.torrent 
Торрент: Зарегистрирован [ 2015-10-08 00:27 ] · 802DDBA49E2525EE24B0E4DA88267B4ED8CB1E07

Скачать .torrent

Скачать

24 KB

Статус: проверено
Скачан: 0 раз
Размер: 4.57 GB
terms.php



Быстрый ответ

Имя:

      
Для отправки сообщений необходимо включить JavaScript
Показать сообщения:    

Текущее время: 22-Янв 04:43

Часовой пояс: UTC + 3


Вы можете начинать темы
Вы можете отвечать на сообщения
Вы не можете редактировать свои сообщения
Вы не можете удалять свои сообщения
Вы не можете голосовать в опросах
Вы не можете прикреплять файлы к сообщениям
Вы можете скачивать файлы