Фермерша из Монфокона / Fermière à Montfaucon (Эрик Ромер / Eric Rohmer) [1967 г., Франция, короткометражка, документальный, BDRip] Original Fre + Sub Rus


Статистика раздачи [Обновить пиров]
Размер:  136 MB   |    Зарегистрирован:  1 год 2 месяца   |    Скачан:  0 раз

Полного источника не было: Никогда

 
   
 
 
 

[Цитировать]

Фермерша из Монфокона / Fermière à Montfaucon- Год выпуска: 1967
Страна: Франция
Жанр: короткометражка, документальный
Продолжительность: 00:13:38
Перевод: Субтитры
Оригинальная аудиодорожка: Французская
Cубтитры: Русские (Бася Поплавская)-Режиссер: Эрик Ромер / Eric Rohmer
В ролях: Моник Сендран-Описание:
Документальный фильм, в центре повествования которого история о непростой жизни фермерши.- | IMDb-Качество: BDRip
Контейнер: AVI
Видео: 640x480 (1.33:1), 24 fps, 1259 kbps, ~0.17 bit/pixel
Аудио: Французский MPEG Layer 3, 1ch, 48 kHz, 128.00 kbps
Формат субтитров: softsub (SRT)

Скриншоты


MI

General
Complete name : Fermière.à.Montfaucon.1967.BDRip.avi
Format : AVI
Format/Info : Audio Video Interleave
File size : 136 MiB
Duration : 13mn 38s
Overall bit rate : 1 396 Kbps
Writing application : VirtualDubMod 1.5.10.2 (build 2540/release)
Writing library : VirtualDubMod build 2540/release
Video
ID : 0
Format : MPEG-4 Visual
Format profile : Advanced Simple@L5
Format settings, BVOP : 1
Format settings, QPel : No
Format settings, GMC : No warppoints
Format settings, Matrix : Custom
Codec ID : XVID
Codec ID/Hint : XviD
Duration : 13mn 38s
Bit rate : 1 259 Kbps
Width : 640 pixels
Height : 480 pixels
Display aspect ratio : 4:3
Frame rate : 24.000 fps
Color space : YUV
Chroma subsampling : 4:2:0
Bit depth : 8 bits
Scan type : Progressive
Compression mode : Lossy
Bits/(Pixel*Frame) : 0.171
Stream size : 123 MiB (90%)
Writing library : XviD 65
Audio
ID : 1
Format : MPEG Audio
Format version : Version 1
Format profile : Layer 3
Codec ID : 55
Codec ID/Hint : MP3
Duration : 13mn 38s
Bit rate mode : Constant
Bit rate : 128 Kbps
Channel(s) : 1 channel
Sampling rate : 48.0 KHz
Compression mode : Lossy
Stream size : 12.5 MiB (9%)
Alignment : Aligned on interleaves
Interleave, duration : 42 ms (1.00 video frame)
Interleave, preload duration : 504 ms
[teatrix.ru].t4389.torrent 
Торрент: Зарегистрирован [ 2015-10-08 00:27 ] · 4437525CB65C77CDFBEC863E7A1A4D77C453D2A2

Скачать .torrent

Скачать

22 KB

Статус: проверено
Скачан: 0 раз
Размер: 136 MB
terms.php



Быстрый ответ

Имя:

      
Для отправки сообщений необходимо включить JavaScript
Показать сообщения:    

Текущее время: 10-Дек 11:51

Часовой пояс: UTC + 3


Вы можете начинать темы
Вы можете отвечать на сообщения
Вы не можете редактировать свои сообщения
Вы не можете удалять свои сообщения
Вы не можете голосовать в опросах
Вы не можете прикреплять файлы к сообщениям
Вы можете скачивать файлы