Сетевой торчок / Web Junkie (Шош Шлам / Shosh Shlam, Хилла Медалиа / Hilla Medalia) [2013, Израиль, США, документальная драма, DVB] DVO (Глагол)


Статистика раздачи [Обновить пиров]
Размер:  1.19 GB   |    Зарегистрирован:  1 год 1 месяц   |    Скачан:  0 раз

Полного источника не было: Никогда

 
   
 
 
 

[Цитировать]

Сетевой торчок
Web Junkie- Страна: Израиль, США
Жанр: документальная драма
Год выпуска: 2013
Продолжительность: 01:14:55Перевод: Профессиональный (двухголосый закадровый) Студия звукозаписи "Глагол" по заказу Компании НКС Медиа
Cубтитры: нет
Режиссер: Шош Шлам / Shosh Shlam, Хилла Медалиа / Hilla Medalia
В ролях: Тао Ран / Tao Ran
Описание: Китай — первая страна, признавшая интернет-зависимость клиническим расстройством. Идея фильма, по словам его создателей, состоит в том, чтобы показать одну из темных сторон интернета, частью которого являются и видеоигры. Авторы фильма вели съемку в одном из реабилитационных центров, работающим в строгом режиме, подобном военному, получив разрешение его основателя. Они наблюдают за пациентами, их семьями и за работой специалистов, пытающихся вылечить молодых людей от этого недуга.
Доп. информация: 24ДОК DVB-S. Отличие от имеющегося на трекере релиза: здесь - исходник DVB + полностью заставки компаний-производителей по ~1 мин. на начальных и заключительных титрах.
Награды: номинация на Гран-при жюри за лучший документальный фильм Sundance Film Festival 2014; номинация на приз молодежного жюри Sheffield International Documentary Festival 2014; номинация на приз "Золотая Жар-птица" за лучший документальный фильм Hong Kong International Film Festival 2014.

Качество видео: DVB
Формат видео: MKV
Видео: MPEG Video 2, 720x576@768x576 (4:3), 25 fps, ~2036 kbps avg, 0.196 bit/pixel
Аудио: MPEG Audio 2, 2 ch, 48 kHz, ~192.00 kbps avg

MediaInfo

ОбщееУникальный идентификатор : 213754515607299467924053208992825427305 (0xA0CF9F4AD535B034B545FDA93A074569)Полное имя : E:\My Torrents 2\[apreder]Web_Junkie(2013)DVB.mkvФормат : MatroskaВерсия формата : Version 2Размер файла : 1,19 ГбайтПродолжительность : 1 ч. 14 м.Режим общего битрейта : ПеременныйОбщий поток : 2273 Кбит/секДата кодирования : UTC 2014-10-13 16:50:01Программа кодирования : mkvmerge v7.2.0 ('On Every Street') 64bit built on Sep 13 2014 15:52:10Библиотека кодирования : libebml v1.3.0 + libmatroska v1.4.1
ВидеоИдентификатор : 1Формат : MPEG VideoВерсия формата : Version 2Профиль формата : Main@MainПараметр BVOP формата : НетПараметр матрицы формата : ВыборочнаяИдентификатор кодека : V_MPEG2Идентификатор кодека/Информация : MPEG 1 or 2 VideoПродолжительность : 1 ч. 14 м.Вид битрейта : ПеременныйБитрейт : 2036 Кбит/секМаксимальный битрейт : 5236 Кбит/секШирина : 720 пикселейВысота : 576 пикселейСоотношение сторон : 4:3Режим частоты кадров : ПостоянныйЧастота кадров : 25,000 кадров/секСтандарт вещания : PALЦветовое пространство : YUVСубдискретизация насыщенности : 4:2:0Битовая глубина : 8 битТип развёртки : ЧересстрочнаяПорядок развёртки : Верхнее поле первоеМетод сжатия : С потерямиБит/(Пиксели*Кадры) : 0.196Временной код первого кадра : 00:00:00:00Оригинал временного кода : Group of pictures headerРазмер потока : 1,07 Гбайт (90%)Default : ДаForced : Нет
АудиоИдентификатор : 2Формат : MPEG AudioВерсия формата : Version 1Профиль формата : Layer 2Идентификатор кодека : A_MPEG/L2Идентификатор кодека/Подсказка : MP2Продолжительность : 1 ч. 14 м.Вид битрейта : ПостоянныйБитрейт : 192 Кбит/секКаналы : 2 каналаЧастота : 48,0 КГцМетод сжатия : С потерямиРазмер потока : 103 Мбайт (8%)Язык : RussianDefault : ДаForced : Нет

Скриншот c названием фильма

Скриншоты


Резервные скриншоты


-[1'815]
[teatrix.ru].t4391.torrent 
Торрент: Зарегистрирован [ 2015-10-08 00:27 ] · E7B8D5838D3D59E24D516D9AA78D44046996B4FD

Скачать .torrent

Скачать

12 KB

Статус: проверено
Скачан: 0 раз
Размер: 1.19 GB
terms.php



Быстрый ответ

Имя:

      
Для отправки сообщений необходимо включить JavaScript
Показать сообщения:    

Текущее время: 07-Дек 13:32

Часовой пояс: UTC + 3


Вы можете начинать темы
Вы можете отвечать на сообщения
Вы не можете редактировать свои сообщения
Вы не можете удалять свои сообщения
Вы не можете голосовать в опросах
Вы не можете прикреплять файлы к сообщениям
Вы можете скачивать файлы