Камбоджа. В реальном времени (Сергей Дебижев) [2004, Россия, Документальный, DVDRip]


Статистика раздачи [Обновить пиров]
Размер:  350 MB   |    Зарегистрирован:  1 год 1 месяц   |    Скачан:  1 раз

Полного источника не было: 3 месяца 16 дней

 
   
 
 
 

[Цитировать]

КАМБОДЖА. В РЕАЛЬНОМ ВРЕМЕНИ
Год выпуска: 2004
Страна: Россия
Студия: Санкт-Петербургская студия документальных фильмов
Жанр: Документальный
Продолжительность: 00:25:55
Перевод: не требуется
Cубтитры: нет
Автор сценария: Сергей Дебижев
Режиссер: Сергей Дебижев
Оператор: Сергей Дебижев
В ролях: население Камбоджи, монахи, туристы, животные
Музыка: Борис Гребенщиков, Андрей Самсонов, Борис Рубекин
Источник:
http://rutracker.org/forum/viewtopic.php?t=908588
Описание:
Второй фильм из цикла «В реальном времени». Фильм снимался как кинозарисовка о жизни людей в Камбодже. Глазами туриста показан их быт, культурно-религиозные традиции основанные на буддизме. Подробно показан храмовый комплекс «Ангкор», являющийся восьмым чудом света.
Качество: DVDRip
Формат: AVI
Видео кодек: XviD
Аудио кодек: mp3
Видео: 720x432 (1.667:1), 25.000 fps, 1 687 kbps, 0.217 bits/(pixel*frame)
Аудио: 48.0 KHz, 2 channels, CBR, 192 Kbps

MediaInfo

General
Name : V realnom vremeni_Cambogia.avi
Format : AVI
Format/Info : Audio Video Interleave
File size : 350 MiB
Duration : 25mn 55s
Overall bit rate : 1 889 Kbps
Writing application : VirtualDubMod 1.5.10.2 (build 2540/release)
Writing library : VirtualDubMod build 2540/release
Video #0
ID : 0
Format : MPEG-4 Visual
Format profile : AdvancedSimple@L5
Format settings, BVOP : Yes
Format settings, QPel : No
Format settings, GMC : No warppoints
Format settings, Matrix : Default (MPEG)
Codec ID : XVID
Codec ID/Hint : XviD
Duration : 25mn 55s
Bit rate : 1 687 Kbps
Width : 720 pixels
Height : 432 pixels
Display aspect ratio : 1.667
Frame rate : 25.000 fps
Resolution : 24 bits
Colorimetry : 4:2:0
Scan type : Progressive
Bits/(Pixel*Frame) : 0.217
Stream size : 313 MiB (89%)
Writing library : XviD 1.2.1 (UTC 2008-12-04)
Audio #1
ID : 1
Format : MPEG Audio
Format version : Version 1
Format profile : Layer 3
Codec ID : 55
Codec ID/Hint : MP3
Duration : 25mn 55s
Bit rate mode : Constant
Bit rate : 192 Kbps
Channel(s) : 2 channels
Sampling rate : 48.0 KHz
Resolution : 16 bits
Stream size : 35.6 MiB (10%)
Alignment : Aligned on interleaves
Interleave, duration : 40 ms (1.00 video frame)
Interleave, preload duration : 504 ms
Writing library : LAME3.98r
Encoding settings : -m s -V 4 -q 2 -lowpass 18.6 -b 192

Скриншоты

[teatrix.ru].t4392.torrent 
Торрент: Зарегистрирован [ 2015-10-08 00:27 ] · F266DF624FBC794A981BCBD147A321DF78D6D815

Скачать .torrent

Скачать

14 KB

Статус: проверено
Скачан: 1 раз
Размер: 350 MB
terms.php



Быстрый ответ

Имя:

      
Для отправки сообщений необходимо включить JavaScript
Показать сообщения:    

Текущее время: 04-Дек 04:56

Часовой пояс: UTC + 3


Вы можете начинать темы
Вы можете отвечать на сообщения
Вы не можете редактировать свои сообщения
Вы не можете удалять свои сообщения
Вы не можете голосовать в опросах
Вы не можете прикреплять файлы к сообщениям
Вы можете скачивать файлы