Запах горящих муравьев / The Smell of Burning Ants (Джей Розенблатт / Jay Rosenblatt) [1994, США, Документальный, арт-хаус, DVDRip] VO + Sub Rus + Original Eng


Статистика раздачи [Обновить пиров]
Размер:  271 MB   |    Зарегистрирован:  1 год 1 месяц   |    Скачан:  0 раз

Полного источника не было: Никогда

 
   
 
 
 

[Цитировать]

Запах горящих муравьев / The Smell of Burning Ants
Страна: США
Жанр: Документальный, арт-хаус
Год выпуска: 1994
Продолжительность: 00:21:15
Перевод: Одноголосый закадровый
Cубтитры: русские
Оригинальная аудиодорожка: английский
Режиссер: Джей Розенблатт / Jay Rosenblatt
В ролях: Ричард Дж. Силберг / Richard J. Silberg
Описание: Средствами авангарда Розенблатт показывает страдания растущего в городе мальчика. Сопоставление сексуальности, мужественности и чувства собственного достоинства формируется исключительно за счет видеоматериалов. Розенблатт искусно плетет свою историю с помощью монтажа и звука. Фильм представляет уникальный и наводящий на размышления опыт.
Сэмпл: http://multi-up.com/1000298
Качество видео: DVDRip
Формат видео: AVI
Видео: 640x480 (1.33:1), 23.976 fps, XviD build 50 ~1508 kbps avg, 0.20 bit/pixel
Аудио 1: 48 kHz, MPEG Layer 3, 2 ch, ~128.00 kbps avg(Русский)
Аудио 2: 48 kHz, MPEG Layer 3, 2 ch, ~128.00 kbps avg(Английский)
Формат субтитров: softsub (SRT)
Доп. информация о субтитрах: Русские внешние (vsasha)

MediaInfo

Общее
Полное имя : F:\С моей озвучкой\Запах горящих муравьев\The Smell of Burning Ants.avi
Формат : AVI
Формат/Информация : Audio Video Interleave
Размер файла : 271 Мбайт
Продолжительность : 21 м.
Общий поток : 1779 Кбит/сек
Программа кодирования : VirtualDubModRus 1.5.10.2 (build 2542/release)
Библиотека кодирования : VirtualDubMod build 2542/release
Видео
Идентификатор : 0
Формат : MPEG-4 Visual
Профиль формата : Advanced Simple@L5
Параметр BVOP формата : 2
Параметр QPel формата : Нет
Параметр GMC формата : Без точки перехода
Параметр матрицы формата : Default (MPEG)
Идентификатор кодека : XVID
Идентификатор кодека/Подсказка : XviD
Продолжительность : 21 м.
Битрейт : 1510 Кбит/сек
Ширина : 640 пикселей
Высота : 480 пикселей
Соотношение сторон : 4:3
Частота кадров : 23,976 кадра/сек
Цветовое пространство : YUV
Субдискретизация насыщенности : 4:2:0
Битовая глубина : 8 бит
Тип развёртки : Прогрессивная
Метод сжатия : С потерями
Бит/(Пиксели*Кадры) : 0.205
Размер потока : 230 Мбайт (85%)
Библиотека кодирования : XviD 1.2.1 (UTC 2008-12-04)
Аудио #1
Идентификатор : 1
Формат : MPEG Audio
Версия формата : Version 1
Профиль формата : Layer 3
Режим : Joint stereo
Расширение режима : MS Stereo
Идентификатор кодека : 55
Идентификатор кодека/Подсказка : MP3
Продолжительность : 21 м.
Вид битрейта : Постоянный
Битрейт : 128 Кбит/сек
Каналы : 2 канала
Частота : 48,0 КГц
Метод сжатия : С потерями
Размер потока : 19,4 Мбайт (7%)
Выравнивание : Соединение по промежуткам
Продолжительность промежутка : 42 мс. (1,00 видеокадр)
Время предзагрузки промежутка : 504 мс.
Библиотека кодирования : LAME3.96
Аудио #2
Идентификатор : 2
Формат : MPEG Audio
Версия формата : Version 1
Профиль формата : Layer 3
Режим : Joint stereo
Расширение режима : MS Stereo
Идентификатор кодека : 55
Идентификатор кодека/Подсказка : MP3
Продолжительность : 21 м.
Вид битрейта : Постоянный
Битрейт : 128 Кбит/сек
Каналы : 2 канала
Частота : 48,0 КГц
Метод сжатия : С потерями
Размер потока : 19,5 Мбайт (7%)
Выравнивание : Соединение по промежуткам
Продолжительность промежутка : 42 мс. (1,00 видеокадр)
Время предзагрузки промежутка : 504 мс.
Библиотека кодирования : LAME3.98

Скриншоты

[teatrix.ru].t4393.torrent 
Торрент: Зарегистрирован [ 2015-10-08 00:27 ] · 39114CC2B83060FAB1B5407B6B2597081E86A961

Скачать .torrent

Скачать

11 KB

Статус: проверено
Скачан: 0 раз
Размер: 271 MB
terms.php



Быстрый ответ

Имя:

      
Для отправки сообщений необходимо включить JavaScript
Показать сообщения:    

Текущее время: 03-Дек 22:46

Часовой пояс: UTC + 3


Вы можете начинать темы
Вы можете отвечать на сообщения
Вы не можете редактировать свои сообщения
Вы не можете удалять свои сообщения
Вы не можете голосовать в опросах
Вы не можете прикреплять файлы к сообщениям
Вы можете скачивать файлы