Человек с киноаппаратом (Дзига Вертов) [1929, СССР, документальный, экспериментальный, немое кино, DVDRip-AVC]


Статистика раздачи [Обновить пиров]
Размер:  1.36 GB   |    Зарегистрирован:  1 год 2 месяца   |    Скачан:  0 раз

Полного источника не было: Никогда

 
   
 
 
 

[Цитировать]

Человек с киноаппаратом
Страна: СССР
Жанр: документальный, экспериментальный, немое кино
Год выпуска: 1929
Продолжительность: 01:06:58
Перевод: Не требуется
Cубтитры: нет
Режиссер: Дзига Вертов
В ролях: Михаил Кауфман
Описание: Мозаика из сцен городской жизни, зафиксированных кинокамерой под разными углами, с разных, иногда самых неожиданных,точек. Показаны практически все технические приемы операторской работы, существовавшие на момент создания фильма. Люди, предметы, панорамы сменяют друг друга, как в калейдоскопе. Человек с киноаппаратом - беспристрастный наблюдатель, проникающий повсюду, но не дающий увиденному своей оценки, просто демонстрирующий срез повседневности, как она есть. «“Человек с киноаппаратом” - это кинопроизведение необычного типа. Оно отнюдь не является переложением на экран какой-либо пьесы, драмы, романа, киносценария или другого литературного произведения. “Человек с киноаппаратом” - это подлинная киновещь, которая должна быть написана не пером литератора или сценариста, а непосредственно киноаппаратом. Она задумана зрительно, без участия словообразов и могла бы быть написана нотами, как пишутся музыкальные произведения» (Дзига Вертов)
Релиз: Rapid

Качество видео: DVDRip-AVC
Формат видео: MKV
Видео: MPEG4 Video (H264) 720x576 (4:3) 2467 Kbps 25 fps
Аудио: Dolby AC3 48000Hz 6ch

MediaInfo

General
Unique ID : 223346610270978072939607197916433648444 (0xA806FE1280A5FC1AA129DE95902E8B3C)
Complete name : D:\Фильмы\Chelovek.s.kinoapparatom.1929.x264.HDRip.mkv
Format : Matroska
Format version : Version 2
File size : 1.36 GiB
Duration : 1h 6mn
Overall bit rate : 2 917 Kbps
Writing application : mkvmerge v3.2.0 ('Beginnings') built on Feb 12 2010 16:46:17
Writing library : libebml v0.7.9 + libmatroska v0.8.1
Video
ID : 1
Format : AVC
Format/Info : Advanced Video Codec
Format profile : High@L4.0
Format settings, CABAC : Yes
Format settings, ReFrames : 6 frames
Codec ID : V_MPEG4/ISO/AVC
Duration : 1h 6mn
Bit rate : 2 467 Kbps
Width : 720 pixels
Height : 576 pixels
Display aspect ratio : 4:3
Original display aspect ratio : 5:4
Frame rate mode : Constant
Frame rate : 25.000 fps
Standard : PAL
Color space : YUV
Chroma subsampling : 4:2:0
Bit depth : 8 bits
Scan type : Progressive
Bits/(Pixel*Frame) : 0.238
Stream size : 1.13 GiB (83%)
Writing library : x264 core 66 r1092 60f4cd8
Encoding settings : cabac=1 / ref=6 / deblock=1:-1:-1 / analyse=0x3:0x113 / me=umh / subme=7 / psy_rd=1.0:1.0 / mixed_ref=1 / me_range=16 / chroma_me=1 / trellis=2 / 8x8dct=1 / cqm=0 / deadzone=21,11 / chroma_qp_offset=-4 / threads=3 / nr=0 / decimate=1 / mbaff=0 / bframes=6 / b_pyramid=1 / b_adapt=2 / b_bias=0 / direct=3 / wpredb=1 / keyint=250 / keyint_min=25 / scenecut=40(pre) / rc=2pass / bitrate=2467 / ratetol=1.0 / qcomp=0.60 / qpmin=10 / qpmax=51 / qpstep=4 / cplxblur=20.0 / qblur=0.5 / vbv_maxrate=25000 / vbv_bufsize=14000 / ip_ratio=1.40 / pb_ratio=1.30 / aq=1:1.00
Default : Yes
Forced : No
Audio
ID : 2
Format : AC-3
Format/Info : Audio Coding 3
Mode extension : CM (complete main)
Format settings, Endianness : Big
Codec ID : A_AC3
Duration : 1h 6mn
Bit rate mode : Constant
Bit rate : 448 Kbps
Channel(s) : 6 channels
Channel positions : Front: L C R, Side: L R, LFE
Sampling rate : 48.0 KHz
Bit depth : 16 bits
Compression mode : Lossy
Stream size : 215 MiB (15%)
Title : Audio
Default : Yes
Forced : No

Скриншоты

[teatrix.ru].t4396.torrent 
Торрент: Зарегистрирован [ 2015-10-08 00:27 ] · 1FEA7558EDF72563F03696C3936BFBC3EE3F47CC

Скачать .torrent

Скачать

14 KB

Статус: проверено
Скачан: 0 раз
Размер: 1.36 GB
terms.php



Быстрый ответ

Имя:

      
Для отправки сообщений необходимо включить JavaScript
Показать сообщения:    

Текущее время: 08-Дек 19:08

Часовой пояс: UTC + 3


Вы можете начинать темы
Вы можете отвечать на сообщения
Вы не можете редактировать свои сообщения
Вы не можете удалять свои сообщения
Вы не можете голосовать в опросах
Вы не можете прикреплять файлы к сообщениям
Вы можете скачивать файлы