Все может случиться / Wszystko może się przytrafić (Марцел Лозиньский / Marcel Łoziński) [1995, Польша, документальный, семейный, DVDRip] Sub Rus (Professor) + Original Pol


Статистика раздачи [Обновить пиров]
Размер:  442 MB   |    Зарегистрирован:  1 год 2 месяца   |    Скачан:  0 раз

Полного источника не было: Никогда

 
   
 
 
 

[Цитировать]

Все может случиться / Wszystko może się przytrafić
Страна: Польша
Жанр: документальный, семейный
Год выпуска: 1995
Продолжительность: 00:39:00-Перевод: Субтитры Professor
Cубтитры: русские
Оригинальная аудиодорожка: польский-Режиссер: Марцел Лозиньский / Marcel Łoziński-В ролях: Томаш Лозиньский-Описание: Обычный день в парке с типичными его посетителями — пожилыми людьми, для которых прогулка одно из немногих занятий в их преклонном возрасте. В парке всегда можно найти уединенную скамейку и отдохнуть наедине со своими мыслями. В один из таких дней, в размеренную и однообразную жизнь этих людей прикатит на своем самокате 6 летний мальчишка и непринужденно начнет задавать вопросы обо всем на свете.
О любви, о страхе, о смерти, одиночестве, о войне и ее бессмысленности, о здоровье и долголетии… Все старики как один, абсолютно искренне и открыто будут отвечать мальчику, нисколько не обижаясь на порой бестактные вопросы, ведь заданы они абсолютно без злого умысла.
В ответах этих людей, за плечами которых целые жизни, можно услышать ответы и на свои вопросы, некоторые из которых ты боишься сам себе задать. Примечательно, что никто из интервьюируемых не стал искусственно приукрашивать свою жизнь. У мальчика все еще впереди, а у собеседников все самые лучшие годы уже позади, но тем не менее они с ним общаются на равных.
Это очень светлое и одновременно грустное кино. Под аккомпанемент вальса, ненадолго ворвавшись в жизни этих стариков, мальчик подарил им некоторую возможность взглянуть на свою жизнь со стороны, подвести итоги.-Доп. информация:- -Призы: Кинофестиваль в Кракове (1995), Международный фестиваль короткометражных фильмов в Обергаузене (1995), Кинофестиваль стран Балтии в Борнхольме (1995), Любушское кинолето в Лагуве (1995), Международный кинофестиваль в Сан-Франциско (1996)-Сэмпл: https://www.sendspace.com/file/v7sfit-Качество видео: DVDRip
Формат видео: AVI-Видео: XviD, 672х416, 16:10, 25 fps, 1 438 Kbps
Аудио: MP3, 48 KHz, 128 Kbps, 2 channels
Формат субтитров: softsub (SRT)

MediaInfo

General
Complete name : Wszystko moze sie przytrafic.DVDrip.avi
Format : AVI
Format/Info : Audio Video Interleave
File size : 442 MiB
Duration : 39mn 0s
Overall bit rate mode : Variable
Overall bit rate : 1 583 Kbps
Video
ID : 0
Format : MPEG-4 Visual
Format profile : Advanced Simple@L5
Format settings, BVOP : 2
Format settings, QPel : Yes
Format settings, GMC : No warppoints
Format settings, Matrix : Default (H.263)
Codec ID : XVID
Codec ID/Hint : XviD
Duration : 39mn 0s
Bit rate : 1 438 Kbps
Width : 672 pixels
Height : 416 pixels
Display aspect ratio : 16:10
Frame rate : 25.000 fps
Color space : YUV
Chroma subsampling : 4:2:0
Bit depth : 8 bits
Scan type : Progressive
Compression mode : Lossy
Bits/(Pixel*Frame) : 0.206
Stream size : 401 MiB (91%)
Writing library : XviD 1.0.3 (UTC 2004-12-20)
Audio
ID : 1
Format : MPEG Audio
Format version : Version 1
Format profile : Layer 3
Mode : Joint stereo
Codec ID : 55
Codec ID/Hint : MP3
Duration : 39mn 0s
Bit rate mode : Variable
Bit rate : 128 Kbps
Channel(s) : 2 channels
Sampling rate : 48.0 KHz
Compression mode : Lossy
Stream size : 37.0 MiB (8%)
Alignment : Aligned on interleaves
Interleave, duration : 24 ms (0.60 video frame)
Interleave, preload duration : 474 ms
Writing library : LAME3.90.
Encoding settings : -m j -V 4 -q 2 -lowpass 17.6 --abr 128

Скриншот c названием фильма

Пример субтитров

14
00:03:15,907 --> 00:03:17,056
А как вас зовут?
15
00:03:17,473 --> 00:03:19,852
Ну, как меня зовут...
16
00:03:20,913 --> 00:03:22,016
Дон Жуан
17
00:03:23,840 --> 00:03:24,669
Да
18
00:03:25,216 --> 00:03:26,488
А вы не сочиняете?
19
00:03:26,614 --> 00:03:28,854
Нет, ничего не сочиняю
20
00:03:29,402 --> 00:03:31,861
- А меня зовут Томек
- Томек?
21
00:03:33,621 --> 00:03:35,128
Хорошее имя
22
00:03:36,113 --> 00:03:38,012
У вас тоже очень хорошее
23
00:03:39,343 --> 00:03:41,305
Томек - очень хороше имя
24
00:03:41,802 --> 00:03:43,170
Я Томек Лозинский
25
00:03:43,578 --> 00:03:45,444
- Как?
- Томек Лозинский
26
00:03:45,856 --> 00:03:48,197
- Лозинский?
- Да, а вы?
27
00:03:52,732 --> 00:03:54,980
Ну, я Дон Жуан
28
00:03:56,332 --> 00:03:58,896
- Дон Жуан... а фамилия как?
- Жуан
29
00:04:03,023 --> 00:04:05,646
Да? У вас французское имя
30
00:04:06,037 --> 00:04:08,446
Французское... с чего
ты взял, что французское?
31
00:04:08,694 --> 00:04:09,705
Потому что знаю
32
00:04:30,248 --> 00:04:32,050
Вы так элегантно выглядите
33
00:04:32,214 --> 00:04:33,907
Да что ты говоришь?
Ну, спасибо, конечно
34
00:04:34,025 --> 00:04:37,250
- Я вижу, у тебя тоже красивая курточка
- Настоящий мужчина
[teatrix.ru].t4397.torrent 
Торрент: Зарегистрирован [ 2015-10-08 00:27 ] · F24F32C6F40B2EA29F0667F127A9AC5B2D436042

Скачать .torrent

Скачать

35 KB

Статус: проверено
Скачан: 0 раз
Размер: 442 MB
terms.php



Быстрый ответ

Имя:

      
Для отправки сообщений необходимо включить JavaScript
Показать сообщения:    

Текущее время: 08-Дек 09:03

Часовой пояс: UTC + 3


Вы можете начинать темы
Вы можете отвечать на сообщения
Вы не можете редактировать свои сообщения
Вы не можете удалять свои сообщения
Вы не можете голосовать в опросах
Вы не можете прикреплять файлы к сообщениям
Вы можете скачивать файлы