Фотограф Тони Франк / Tony Frank deviant l\'objectiv (Жереми Шеллар / Jeremie Schellaert) [2013, Франция, документальный, искусство фотографии, DVB] Original (Fre) + Sub (rus)


Статистика раздачи [Обновить пиров]
Размер:  1.3 GB   |    Зарегистрирован:  1 год 1 месяц   |    Скачан:  1 раз

Полного источника не было: 3 месяца 7 дней

 
   
 
 
 

[Цитировать]

Фотограф Тони Франк
Tony Frank deviant l'objectiv- Страна: Франция
Жанр: документальный, искусство фотографии
Год выпуска: 2013
Продолжительность: 00:52:40
Перевод: Субтитры (перевод И. Рыбкиной, Éclair Group)
Cубтитры: русские
Оригинальная аудиодорожка: французский
Режиссер: Жереми Шеллар / Jérémie SchellaertВ ролях: Тони Франк / Tony Frank, Натали Бэй / Nathalie Baye, Джейн Биркин / Jane Birkin, Джонни Халлидей / Johnny Hallyday, Эдди Митчелл / Eddy Mitchell, Вероник Сансон / Véronique Sanson, Серж Генсбур / Serge Gainsbourg (Archive)
Описание: Он сотрудничал со многими журналами, такими как Salut les Copains, Hit Magazine, Paris-Match и агентством Sygma. Между 1960 и 1980 годами перед его объективом прошли поп-звезды, актеры кино, художники, представители мира искусства. Он запечатлел Сержа Генсбура и Джейн Биркин, Джонни Халлидея и Клода Франсуа, Франс Галь и группу Téléphone, Rolling Stones, Боба Дилана, Дженис Джоплин, Тину Тёрнер, The Who, Рэя Чарльза, Катрин Денев, Жана-Люка Годара, Мадонну, Далиду, Алена Делона, Тома Джонса… Он – один из ведущих фотографов XX века.
Доп. информация: TV5MONDE DVB-S
Участник Festival du Film Francophone d'Angoulême 2013.

Качество видео: DVB
Формат видео: MKV
Видео: MPEG Video 2, 704x576@1024x576 (16:9), 25 fps, ~3271 kbps avg, 0.323 bit/pixel
Аудио: Французский (MPEG Audio 2, 2 ch, 48 kHz, ~192.00 kbps avg)
Формат субтитров: hardsub (неотключаемые)

MediaInfo

ОбщееУникальный идентификатор : 213410760841487291394762200262374593513 (0xA08D6ADFB37D2648B3C42F6ACD5413E9)Полное имя : E:\My Torrents 2\[apreder]Tony_Frank_deviant_l'objectiv(2013)DVB.mkvФормат : MatroskaВерсия формата : Version 2Размер файла : 1,30 ГбайтПродолжительность : 52 м.Режим общего битрейта : ПеременныйОбщий поток : 3533 Кбит/секДата кодирования : UTC 2014-08-19 15:30:00Программа кодирования : mkvmerge v7.1.0 ('Good Love') 64bit built on Jul 27 2014 13:06:55Библиотека кодирования : libebml v1.3.0 + libmatroska v1.4.1
ВидеоИдентификатор : 1Формат : MPEG VideoВерсия формата : Version 2Профиль формата : Main@MainПараметр BVOP формата : НетПараметр матрицы формата : ВыборочнаяИдентификатор кодека : V_MPEG2Идентификатор кодека/Информация : MPEG 1 or 2 VideoПродолжительность : 52 м.Вид битрейта : ПеременныйБитрейт : 3271 Кбит/секМаксимальный битрейт : 8056 Кбит/секШирина : 704 пикселяВысота : 576 пикселейСоотношение сторон : 16:9Режим частоты кадров : ПостоянныйЧастота кадров : 25,000 кадров/секСтандарт вещания : PALЦветовое пространство : YUVСубдискретизация насыщенности : 4:2:0Битовая глубина : 8 битТип развёртки : ЧересстрочнаяПорядок развёртки : Верхнее поле первоеМетод сжатия : С потерямиБит/(Пиксели*Кадры) : 0.323Временной код первого кадра : 00:00:00:00Оригинал временного кода : Group of pictures headerРазмер потока : 1,20 Гбайт (93%)Default : ДаForced : Нет
АудиоИдентификатор : 2Формат : MPEG AudioВерсия формата : Version 1Профиль формата : Layer 2Идентификатор кодека : A_MPEG/L2Идентификатор кодека/Подсказка : MP2Продолжительность : 52 м.Вид битрейта : ПостоянныйБитрейт : 192 Кбит/секКаналы : 2 каналаЧастота : 48,0 КГцМетод сжатия : С потерямиРазмер потока : 72,3 Мбайт (5%)Язык : FrenchDefault : ДаForced : Нет

Скриншот c названием фильма

Скриншоты


Резервные скриншоты


-[1'648]
[teatrix.ru].t4398.torrent 
Торрент: Зарегистрирован [ 2015-10-08 00:27 ] · A77DE1E33592BBF27D9A1AA2DB5162E6B52E3073

Скачать .torrent

Скачать

14 KB

Статус: проверено
Скачан: 1 раз
Размер: 1.3 GB
terms.php



Быстрый ответ

Имя:

      
Для отправки сообщений необходимо включить JavaScript
Показать сообщения:    

Текущее время: 06-Дек 11:09

Часовой пояс: UTC + 3


Вы можете начинать темы
Вы можете отвечать на сообщения
Вы не можете редактировать свои сообщения
Вы не можете удалять свои сообщения
Вы не можете голосовать в опросах
Вы не можете прикреплять файлы к сообщениям
Вы можете скачивать файлы