Рауль Руис. Из Чили к Клоссовски / Raoul Ruiz, du Chili a Klossowski / Рауль Руис. Фантастическое путешествие / Raul Ruiz: Le voyage fantastique (Жером Приер / Jerome Prieur) [2006, Франция, короткий метр, документальный, DVDRip]


Статистика раздачи [Обновить пиров]
Размер:  624 MB   |    Зарегистрирован:  1 год 1 месяц   |    Скачан:  0 раз

Полного источника не было: Никогда

 
   
 
 
 

[Цитировать]

Короткометражные фильмы Жерома Приера
Рауль Руис. Из Чили к Клоссовски / Raoul Ruiz, du Chili a Klossowski
Страна: Франция
Жанр: короткий метр, документальный
Год выпуска: 2006
Продолжительность: 00:29:58
Перевод: субтитры
Cубтитры: русский
Оригинальная аудиодорожка: французский
Режиссер: Жером Приер / Jerome Prieur
В ролях: Рауль Руис/Raoul Ruiz
Описание: В этом фильме-монологе режиссёр Рауль Руис рассказывает о том, как после пиночетовского переворота переехал из Чили в Европу. Череда различных совпадений – и вот он уже снимает фильм «Прерванное служение» по непростой книге Пьера Клоссовски; затем последует «Гипотеза похищенной картины», в которой философско-мифологические идеи Клоссовски будут сплавлены с детективным анализом серии картин. Кроме такой кинобиографической линии, в фильме Приёра Рауль Руис рассказывает о множестве персоналий, с которыми ему пришлось повстречаться, о том, как он кормил чилийской кухней критиков из «Кайе», о силе случая, о том, как он вывел из себя Клоссовски, сломав лук Дианы, и многих других интересных вещах.
Рауль Руис. Фантастическое путешествие / Raul Ruiz: Le voyage fantastique
Страна: Франция
Жанр: короткий метр, документальный
Год выпуска: 2006
Продолжительность: 00:29:04
Перевод: субтитры
Cубтитры: русский
Оригинальная аудиодорожка: французский
Режиссер: Жером Приер / Jerome Prieur
В ролях: Рауль Руис/Raoul Ruiz
Описание: Рауль Руис начинает свой монолог в фильме Приёра, определяя своё географическое положение. Он находится в Чили, между Кордильерами и реками, но рассказывает он о том, как поехал отдохнуть в Барселону, и там написал несколько сценариев, которые потом превратил в оригинальные фильмы «Три кроны для моряка», «Город пиратов», «Территорию» и другие. Руис рассказывает о том, что кинематограф вдохновляется всем, чем только можно – фольклором, мифами, книгами, математическими формулами. Режиссёр рассказывает о жизненном цикле мифов, о Мирча Элиаде, Португалии, о методе бриколажа, о том, что моногамным людям сложнее учить иностранные языки, о поэзии логики и математики, а также многих других интересных вещах.
Доп. информация: Перевод – Юрий Хвойнец, подготовка субтитров – alex-kin.
Огромная благодарность 1o1 и janatas (КГ).
Памяти Рауля Руиса

Сэмплы

Рауль Руис. Из Чили к Клоссовски
http://multi-up.com/992702
Рауль Руис. Фантастическое путешествие
http://multi-up.com/992703

Технические данные

Рауль Руис. Из Чили к Клоссовски
Качество видео: DVDRip
Формат видео: AVI
Видео: XviD MPEG-4 at 1403 kbps, 0.15 bit/pixel, 640x480 (1.33:1) at 29.970 fps
Аудио: MPEG Layer 3 at 128.00 kbps, 2 ch, 48 kHz
Рауль Руис. Фантастическое путешествие
Качество видео: DVDRip
Формат видео: AVI
Видео: DivX Codec 6.8 at 1304 kbps, 0.20 bit/pixel, 608x448 (1.36:1) at 23.976 fps
Аудио: MPEG Layer 3 at 96.00 kbps, 2 ch, 32 kHz

Субтитры

Формат субтитров: softsub (SRT)
Фрагменты субтитров:
Рауль Руис. Из Чили к Клоссовски
246
00:19:46,359 --> 00:19:49,419
Ему не хотелось,
чтобы он распылялся.
247
00:19:49,560 --> 00:19:55,760
Так что я остался без главного элемента
своего будущего фильма.
248
00:19:55,899 --> 00:19:59,266
Я не был уверен,
стоит ли мне продолжать.
249
00:19:59,333 --> 00:20:01,201
Но в конечном итоге
я засел за сценарий.
250
00:20:01,209 --> 00:20:03,570
Я пытался писать а ля Клоссовски,
251
00:20:03,670 --> 00:20:07,060
но выходило что-то вроде
Раймона Русселя.
252
00:20:07,379 --> 00:20:10,369
Я написал его.
253
00:20:10,520 --> 00:20:13,947
Коллекционер выставляет
свои картины
254
00:20:14,147 --> 00:20:16,817
и думает, что есть секрет,
который соединяет их все,
255
00:20:16,820 --> 00:20:23,824
а разгадать этот секрет можно лишь
с помощью живых картин.
256
00:20:25,500 --> 00:20:28,949
Интересно то, что все эти вещи
257
00:20:29,100 --> 00:20:33,867
были крайне похожи на те,
что происходили в загадочных фильмах
258
00:20:34,034 --> 00:20:36,036
с детективными элементами,
259
00:20:36,179 --> 00:20:41,169
которые со временем
образовали целый жанр.
260
00:20:41,310 --> 00:20:47,639
Сейчас нечто подобное лежит
в основе многих бестселлеров.
261
00:20:47,790 --> 00:20:54,689
«Код Да Винчи», «Правило четырех»,
я думаю можно насчитать
262
00:20:54,830 --> 00:20:58,760
порядка тридцати, отталкивающихся
от идей, связанных с эзотерикой.
263
00:20:58,899 --> 00:21:05,320
Сейчас это даже слишком избито.
264
00:21:05,469 --> 00:21:09,369
Эта тема потеряла свое очарование.
Но, когда мы делали фильм,
265
00:21:09,510 --> 00:21:14,770
мы использовали
французскую эзотерику 19-го века,
266
00:21:15,480 --> 00:21:19,100
совместив ее
267
00:21:19,250 --> 00:21:24,179
со сложной философской системой
Пьера Клоссовски.
Рауль Руис. Фантастическое путешествие
50
00:03:45,091 --> 00:03:48,145
Изгнание – это тема большинства
моих фильмов,
51
00:03:48,645 --> 00:03:50,898
но существуют
разные виды изгнания.
52
00:03:50,964 --> 00:03:54,365
Я никогда не мог предположить,
53
00:03:54,501 --> 00:03:57,363
что изгнание станет
центральным вопросом
54
00:03:58,280 --> 00:04:02,045
большинства людей в этом мире.
Мы все изгнанники.
55
00:04:02,175 --> 00:04:08,011
Это один из основных эффектов
глобализации:
56
00:04:08,148 --> 00:04:10,708
каждый становится изгнанником.
57
00:04:10,850 --> 00:04:16,345
Социальная система так же,
как и экосистема, распадается,
58
00:04:16,489 --> 00:04:19,947
если говорить кратко.
59
00:04:20,093 --> 00:04:28,091
Однако нам следует вернуться назад,
в 1974 год.
60
00:04:29,936 --> 00:04:32,996
Между 74 и 75 годами.
61
00:04:33,139 --> 00:04:38,202
Мой друг, редактор Марио Мушник
62
00:04:38,344 --> 00:04:44,146
тогда организовывал
издательство в Барселоне.
63
00:04:44,284 --> 00:04:45,285
И он сказал...
64
00:04:45,869 --> 00:04:49,534
Он видел, что я был тогда
в сложном финансовом положении,
65
00:04:51,925 --> 00:04:55,793
мы тогда жили в трудные времена.
66
00:04:55,929 --> 00:04:57,589
Он сказал:
67
00:04:58,132 --> 00:05:03,042
«Я думаю, тебе нужен отдых.
Необходимо сменить обстановку».
68
00:05:03,336 --> 00:05:06,772
И он пригласил меня в Барселону.
69
00:05:06,906 --> 00:05:13,903
Я поехал туда на автомобиле.
На одну неделю в Барселону.
70
00:05:14,047 --> 00:05:18,279
Он дал мне денег,
чтобы я мог развлечься.

MediaInfo

Рауль Руис. Из Чили к Клоссовски
Формат : AVI
Формат/Информация : Audio Video Interleave
Размер файла : 331 Мбайт
Продолжительность : 29 м.
Общий поток : 1543 Кбит/сек
Программа кодирования : transcode-1.0.2
Видео
Идентификатор : 0
Формат : MPEG-4 Visual
Профиль формата : Advanced Simple@L5
Параметр BVOP формата : 2
Параметр QPel формата : Нет
Параметр GMC формата : Без точки перехода
Параметр матрицы формата : Default (MPEG)
Режим смешивания : Сжатый битовый поток
Идентификатор кодека : XVID
Идентификатор кодека/Подсказка : XviD
Продолжительность : 29 м.
Битрейт : 1403 Кбит/сек
Ширина : 640 пикс.
Высота : 480 пикс.
Соотношение сторон : 4:3
Частота кадров : 29,970 кадр/сек
Цветовое пространство : YUV
Подвыборка цветности : 4:2:0
Битовая глубина : 8 бит
Тип развёртки : Прогрессивная
Метод сжатия : С потерями
Бит/(Пиксели*Кадры) : 0.152
Размер потока : 301 Мбайт (91%)
Библиотека кодирования : XviD 1.1.0 (UTC 2005-11-22)
Аудио
Идентификатор : 1
Формат : MPEG Audio
Версия формата : Version 1
Профиль формата : Layer 3
Режим : Joint stereo
Расширение режима : MS Stereo
Идентификатор кодека : 55
Идентификатор кодека/Подсказка : MP3
Продолжительность : 29 м.
Вид битрейта : Постоянный
Битрейт : 128 Кбит/сек
Канал(ы) : 2 канала(ов)
Частота : 48,0 КГц
Битовая глубина : 16 бит
Метод сжатия : С потерями
Размер потока : 27,4 Мбайт (8%)
Выравнивание : Разделение по промежуткам
Продолжительность промежутка : 33 мс. (1,00 видеокадр)
Рауль Руис. Фантастическое путешествие
Формат : AVI
Формат/Информация : Audio Video Interleave
Размер файла : 293 Мбайт
Продолжительность : 29 м.
Общий поток : 1410 Кбит/сек
Программа кодирования : VirtualDubMod 1.5.10.2 (build 2540/release)
Библиотека кодирования : VirtualDubMod build 2540/release
Видео
Идентификатор : 0
Формат : MPEG-4 Visual
Параметр BVOP формата : 1
Параметр QPel формата : Нет
Параметр GMC формата : Без точки перехода
Параметр матрицы формата : Default (H.263)
Режим смешивания : Сжатый битовый поток
Идентификатор кодека : DX50
Идентификатор кодека/Подсказка : DivX 5
Продолжительность : 29 м.
Битрейт : 1305 Кбит/сек
Ширина : 608 пикс.
Высота : 448 пикс.
Соотношение сторон : 4:3
Частота кадров : 23,976 кадр/сек
Цветовое пространство : YUV
Подвыборка цветности : 4:2:0
Битовая глубина : 8 бит
Тип развёртки : Прогрессивная
Метод сжатия : С потерями
Бит/(Пиксели*Кадры) : 0.200
Размер потока : 271 Мбайт (93%)
Библиотека кодирования : DivX 6.8.0 (UTC 2007-12-04)
Аудио
Идентификатор : 1
Формат : MPEG Audio
Версия формата : Version 1
Профиль формата : Layer 3
Режим : Joint stereo
Расширение режима : MS Stereo
Идентификатор кодека : 55
Идентификатор кодека/Подсказка : MP3
Продолжительность : 29 м.
Вид битрейта : Постоянный
Битрейт : 96,0 Кбит/сек
Канал(ы) : 2 канала(ов)
Частота : 32,0 КГц
Метод сжатия : С потерями
Размер потока : 20,0 Мбайт (7%)
Выравнивание : Соединение по промежуткам
Продолжительность промежутка : 42 мс. (1,00 видеокадр)
Время предзагрузки промежутка : 504 ms

Скриншот c названием фильма

Рауль Руис. Из Чили к Клоссовски

Рауль Руис. Фантастическое путешествие

Скриншоты

Рауль Руис. Из Чили к Клоссовски




Рауль Руис. Фантастическое путешествие



[teatrix.ru].t4400.torrent 
Торрент: Зарегистрирован [ 2015-10-08 00:27 ] · 1A450001645B8F456FEC4F08D01A5C8F51FA740C

Скачать .torrent

Скачать

25 KB

Статус: проверено
Скачан: 0 раз
Размер: 624 MB
terms.php



Быстрый ответ

Имя:

      
Для отправки сообщений необходимо включить JavaScript
Показать сообщения:    

Текущее время: 07-Дек 11:33

Часовой пояс: UTC + 3


Вы можете начинать темы
Вы можете отвечать на сообщения
Вы не можете редактировать свои сообщения
Вы не можете удалять свои сообщения
Вы не можете голосовать в опросах
Вы не можете прикреплять файлы к сообщениям
Вы можете скачивать файлы