Пять разбитых камер / Five Broken Cameras / 5 Broken Cameras (Эмад Бурнат / Emad Burnat, Гай Давиди / Guy Davidi) [2011, документальный, DVB] [телеверсия] MVO (Селена Интернешнл)


Статистика раздачи [Обновить пиров]
Размер:  1.21 GB   |    Зарегистрирован:  1 год 1 месяц   |    Скачан:  0 раз

Полного источника не было: Никогда

 
   
 
 
 

[Цитировать]

Пять разбитых камер‎
Five Broken Cameras- Страна: ПНА, Израиль, Франция, Нидерланды
Жанр: документальный,
Год выпуска: 2011
Продолжительность: 00:55:33Перевод: Профессиональный (многоголосый закадровый) (Кинокомпания "Селена Интернешнл")
Cубтитры: нет
Режиссер: Эмад Бурнат / Emad Burnat, Гай Давиди / Guy Davidi
В ролях: Эмад Бурнат / Emad Burnat, Сорайя Бурнат / Soraya Burnat
Описание: Фильм состоит из новелл, последовательно рассказывающих о судьбе пяти видеокамер палестинского крестьянина Эмада Бурната из деревнии Бильин недалеко от Рамаллы. Первую камеру он приобрёл в 2005 году, чтобы заснять рождение своего младшего сына, и по мере того, как Джибриль Бурнат взрослеет в кадре (первыми словами ребёнка становятся "стена", "армия" и "гильза"), плёнка запечатлевает также строительство израильского разделительного барьера рядом с деревней, оливковые рощи, срываемые бульдозерами, акции протеста и гибель людей. Жертвами конфликта становятся и видеокамеры Бурната, разбитые камнями и пулями, причём, по его собственным словам, одна из камер спасла ему жизнь, остановив пулю, летящую в него.
Превратить собранные за пять лет видеоархивы в полнометражный фильм уговорил Бурната израильский кинорежиссёр и левый активист Гай Давиди, также участвовавший в акциях протеста жителей Бильина.
Доп. информация: 24ДОК DVB-S
Награды: номинация на "Оскар" 2013 за лучший документальный полнометражный фильм; премия за лучшую режиссуру документального фильма Sundance Film Festival 2012 + номинация на Гран-при фестиваля за лучший документальный фильм; премия "Эмми" 2013 за лучший документальный фильм; др. награды.

Качество видео: DVB
Формат видео: MKV
Видео: MPEG Video 2, 720x576@768x576 (4:3), 25 fps, ~2873 kbps avg, 0.277 bit/pixel
Аудио: MPEG Audio 2, 2 ch, 48 kHz, ~192.00 kbps avg

MediaInfo

ОбщееУникальный идентификатор : 218222767630967334775135086965839021193 (0xA42C2D203610947585F4A189401AC489)Полное имя : E:\My Torrents 2\[apreder]Five_Broken_Cameras(2011)DVB.mkvФормат : MatroskaВерсия формата : Version 2Размер файла : 1,21 ГбайтПродолжительность : 55 м.Режим общего битрейта : ПеременныйОбщий поток : 3127 Кбит/секДата кодирования : UTC 2014-08-15 14:52:34Программа кодирования : mkvmerge v7.1.0 ('Good Love') 64bit built on Jul 27 2014 13:06:55Библиотека кодирования : libebml v1.3.0 + libmatroska v1.4.1
ВидеоИдентификатор : 1Формат : MPEG VideoВерсия формата : Version 2Профиль формата : Main@MainПараметр BVOP формата : НетПараметр матрицы формата : ВыборочнаяИдентификатор кодека : V_MPEG2Идентификатор кодека/Информация : MPEG 1 or 2 VideoПродолжительность : 55 м.Вид битрейта : ПеременныйБитрейт : 2873 Кбит/секМаксимальный битрейт : 5505 Кбит/секШирина : 720 пикселейВысота : 576 пикселейСоотношение сторон : 4:3Режим частоты кадров : ПостоянныйЧастота кадров : 25,000 кадров/секСтандарт вещания : PALЦветовое пространство : YUVСубдискретизация насыщенности : 4:2:0Битовая глубина : 8 битТип развёртки : ЧересстрочнаяПорядок развёртки : Верхнее поле первоеМетод сжатия : С потерямиБит/(Пиксели*Кадры) : 0.277Временной код первого кадра : 00:00:00:00Оригинал временного кода : Group of pictures headerРазмер потока : 1,11 Гбайт (92%)Default : ДаForced : Нет
АудиоИдентификатор : 2Формат : MPEG AudioВерсия формата : Version 1Профиль формата : Layer 2Идентификатор кодека : A_MPEG/L2Идентификатор кодека/Подсказка : MP2Продолжительность : 55 м.Вид битрейта : ПостоянныйБитрейт : 192 Кбит/секКаналы : 2 каналаЧастота : 48,0 КГцМетод сжатия : С потерямиРазмер потока : 76,3 Мбайт (6%)Язык : RussianDefault : ДаForced : Нет

Скриншот c названием фильма

Скриншоты


Резервные скриншоты


-[1'629]
[teatrix.ru].t4401.torrent 
Торрент: Зарегистрирован [ 2015-10-08 00:27 ] · 3A3C4964D57F73E7B33CDD51D25A6EBC85C7B67E

Скачать .torrent

Скачать

13 KB

Статус: проверено
Скачан: 0 раз
Размер: 1.21 GB
terms.php



Быстрый ответ

Имя:

      
Для отправки сообщений необходимо включить JavaScript
Показать сообщения:    

Текущее время: 04-Дек 09:08

Часовой пояс: UTC + 3


Вы можете начинать темы
Вы можете отвечать на сообщения
Вы не можете редактировать свои сообщения
Вы не можете удалять свои сообщения
Вы не можете голосовать в опросах
Вы не можете прикреплять файлы к сообщениям
Вы можете скачивать файлы