Несовершеннолетние / Underage (Ом Пханфирой, Дэнни Линснер / Danny Linsner, Ohm Phanphiroj) [2011, Таиланд, документальный, короткометражный, WebRip] Original + Sub Rus


Статистика раздачи [Обновить пиров]
Размер:  80 MB   |    Зарегистрирован:  1 год 2 месяца   |    Скачан:  2 раза

Полного источника не было: 3 месяца 1 день

 
   
 
 
 

[Цитировать]

Несовершеннолетние / Underage
Страна: Таиланд
Жанр: документальный, короткометражный
Год выпуска: 2011
Продолжительность: 00:07:05
Перевод: Субтитры
Cубтитры: русские (kidkong @ blizzardkid), английские вшитые
Оригинальная аудиодорожка: Тайский
Режиссер: Ом Пханфирой, Дэнни Линснер / Danny Linsner, Ohm Phanphiroj
Описание: Cкандальный и неоднозначный документальный фильм международного фотографа и режиссёра таиландского происхождения Ohm Phanphiroj, нацеленный на понимание несовершеннолетней мужской проституции. Авторы немного приоткрыли тайны жизни мальчиков и выбора пути.
http://www.imdb.com/title/tt2023800/
Доп. информация: Festivals & Awards:
Sommerblut Film Festival
Noorderlicht Photo Festival
Vimeo Film Award Finalist
Singaporean Film Award Finalist
Lightwork Residency Award
Newspace Center for Photography Award
Beers.Lambert's Finalist
Vermont Artist in Residence Finalist
Greenpoint Film Festival Finalist
Сэмпл
Качество видео: WebRip
Формат видео: MP4
Видео: MPEG4 Video (H264) 1280x720 29.97fps 1416kbps
Аудио: AAC 44100Hz stereo 150kbps
Формат субтитров: softsub (SRT), hardsub

Пример текста

80
00:04:04,945 --> 00:04:07,047
Автокатастрофа
81
00:04:08,015 --> 00:04:09,616
Сколько ей было лет, когда это произошло?
82
00:04:11,818 --> 00:04:12,619
Я не помню
83
00:04:12,819 --> 00:04:13,921
Ты скучаешь по ней?
84
00:04:15,656 --> 00:04:16,757
Она любила тебя?
85
00:04:17,658 --> 00:04:18,759
Ты любил ее?
86
00:04:24,565 --> 00:04:26,233
О чем ты мечтаешь?
87
00:04:26,366 --> 00:04:27,434
Я хочу быть репортером
88
00:04:27,901 --> 00:04:28,869
Полицейским
89
00:04:29,203 --> 00:04:31,038
Я хочу быть Б-Боем (брейкдансером)
90
00:04:31,471 --> 00:04:32,472
Я хочу иметь компанию
91
00:04:32,673 --> 00:04:33,507
Иметь собственный бизнес
92
00:04:34,408 --> 00:04:36,143
Я хочу быть хорошим танцором
93
00:04:37,311 --> 00:04:39,012
Я хочу иметь хорошую работу и быть богатым
94
00:04:39,847 --> 00:04:41,782
В моих мечтах я хотел бы быть...
95
00:04:42,482 --> 00:04:43,550
полицейским
96
00:04:44,985 --> 00:04:45,819
Я хочу быть певцом
97
00:04:46,320 --> 00:04:47,421
У меня нет мечты
98
00:04:48,822 --> 00:04:51,325
(Поет) Я знаю сердцем
99
00:04:51,325 --> 00:04:55,362
Где ты была
100
00:04:55,896 --> 00:04:58,365
Я видел своими глазами

MediaInfo

General
Complete name : F:\utorrent\Underage\Underage.mp4
Format : MPEG-4
Format profile : Base Media / Version 2
Codec ID : mp42
File size : 79.7 MiB
Duration : 7mn 5s
Overall bit rate mode : Variable
Overall bit rate : 1 574 Kbps
Encoded date : UTC 2011-04-12 17:41:36
Tagged date : UTC 2011-04-12 17:41:36
gsst : 0
gstd : 425040
gssd : B4A7DD127MH1372260499410494
gshh : r7---sn-5hn7su7l.c.youtube.com
Video
ID : 1
Format : AVC
Format/Info : Advanced Video Codec
Format profile : High@L3.1
Format settings, CABAC : Yes
Format settings, ReFrames : 1 frame
Codec ID : avc1
Codec ID/Info : Advanced Video Coding
Duration : 7mn 5s
Bit rate : 1 417 Kbps
Maximum bit rate : 4 722 Kbps
Width : 1 280 pixels
Height : 720 pixels
Display aspect ratio : 16:9
Frame rate mode : Variable
Frame rate : 30.000 fps
Minimum frame rate : 29.412 fps
Maximum frame rate : 55.556 fps
Color space : YUV
Chroma subsampling : 4:2:0
Bit depth : 8 bits
Scan type : Progressive
Bits/(Pixel*Frame) : 0.051
Stream size : 71.8 MiB (90%)
Tagged date : UTC 2011-04-12 17:41:38
Audio
ID : 2
Format : AAC
Format/Info : Advanced Audio Codec
Format profile : LC
Codec ID : 40
Duration : 7mn 4s
Bit rate mode : Variable
Bit rate : 151 Kbps
Maximum bit rate : 215 Kbps
Channel(s) : 2 channels
Channel positions : Front: L R
Sampling rate : 44.1 KHz
Compression mode : Lossy
Stream size : 7.65 MiB (10%)
Title : (C) 2007 Google Inc. v08.13.2007.
Encoded date : UTC 2011-04-12 17:41:37
Tagged date : UTC 2011-04-12 17:41:38

Скриншоты

[teatrix.ru].t4404.torrent 
Торрент: Зарегистрирован [ 2015-10-08 00:27 ] · 64C87C3DFD617936C73C5EE0409E51C97B9730BE

Скачать .torrent

Скачать

13 KB

Статус: проверено
Скачан: 2 раз
Размер: 80 MB
terms.php



Быстрый ответ

Имя:

      
Для отправки сообщений необходимо включить JavaScript
Показать сообщения:    

Текущее время: 09-Дек 22:24

Часовой пояс: UTC + 3


Вы можете начинать темы
Вы можете отвечать на сообщения
Вы не можете редактировать свои сообщения
Вы не можете удалять свои сообщения
Вы не можете голосовать в опросах
Вы не можете прикреплять файлы к сообщениям
Вы можете скачивать файлы