Кошмар Дарвина / Darwin\'s Nightmare (Хуберт Саупер / Hubert Sauper) [2004, Австрия, Бельгия, Франция, Германия, документальная аналитика, DVB] DVO (24 ДОК)


Статистика раздачи [Обновить пиров]
Размер:  2.93 GB   |    Зарегистрирован:  1 год 2 месяца   |    Скачан:  0 раз

Полного источника не было: Никогда

 
   
 
 
 

[Цитировать]

Кошмар Дарвина
Darwin's Nightmare- Страна: Австрия, Бельгия, Франция, Германия
Жанр: документальная аналитика
Год выпуска: 2004
Продолжительность: 01:43:54
Перевод: Профессиональный (двухголосый закадровый) 24 ДОК
Cубтитры: нет
Режиссер: Хуберт Саупер / Hubert SauperВ ролях: Элизабет Нсесе / Elizabeth 'Eliza' Maganga Nsese, Рафаэль Вагара / Raphael Tukiko Wagara, Джонатан Натанаэль / Jonathan Nathanael, Сергей Самарец, Владимир Тарасенко
Описание: Австрийский документалист Хуберт Саупер представил на премию "Оскар" картину о глобальных последствиях небольшого научного эксперимента. В 1960-х в африканское озеро Виктория была выпущена небольшая популяция нильского окуня. За сорок лет этот крупный и быстро размножающийся хищник истребил почти все эндемичные виды рыб. Но нильский окунь оказался хорошей статьей экспорта, приносящей немалый доход Танзании. На вырученные деньги владельцы рыбных заводов и правительство покупают не лекарства от СПИДа, который бушует в стране, а оружие для воюющих группировок.
Доп. информация: 24 ДОК DVB-S
Награды: номинация на "Оскар" 2006 за лучший документальный фильм; "Сезар" 2006 за лучший дебют в режиссуре; Приз ассоциации европейских кинотеатров Venice Film Festival 2004; приз "Феликс" за лучший документальный фильм European Film Awards 2004; др. награды.
http://www.imdb.com/title/tt0424024
Сэмпл: http://multi-up.com/978419
Качество видео: DVB
Формат видео: MKV
Видео: MPEG Video 2, 720x576@768x576 (4:3), 25 fps, ~3758 kbps avg, 0.362 bit/pixel
Аудио: 48 kHz, MPEG Audio 2, 2 ch, ~192.00 kbps avg

MediaInfo

ОбщееУникальный идентификатор : 226675741211926249593641016666368378786 (0xAA8828E67720BC25AD83A928244207A2)Полное имя : H:\My Torrents\[apreder]Darwin's_Nightmare(2004)DVB.mkvФормат : MatroskaВерсия формата : Version 2Размер файла : 2,93 ГбайтПродолжительность : 1 ч. 43 м.Режим общего битрейта : ПеременныйОбщий поток : 4030 Кбит/секДата кодирования : UTC 2014-06-05 09:53:28Программа кодирования : mkvmerge v6.9.1 ('Blue Panther') 32bit built on Apr 18 2014 18:15:44Библиотека кодирования : libebml v1.3.0 + libmatroska v1.4.1
ВидеоИдентификатор : 1Формат : MPEG VideoВерсия формата : Version 2Профиль формата : Main@MainПараметр BVOP формата : НетПараметр матрицы формата : ВыборочнаяИдентификатор кодека : V_MPEG2Идентификатор кодека/Информация : MPEG 1 or 2 VideoПродолжительность : 1 ч. 43 м.Вид битрейта : ПеременныйБитрейт : 3758 Кбит/секМаксимальный битрейт : 5545 Кбит/секШирина : 720 пикселейВысота : 576 пикселейСоотношение сторон : 4:3Режим частоты кадров : ПостоянныйЧастота кадров : 25,000 кадров/секСтандарт вещания : PALЦветовое пространство : YUVСубдискретизация насыщенности : 4:2:0Битовая глубина : 8 битТип развёртки : ЧересстрочнаяПорядок развёртки : Верхнее поле первоеМетод сжатия : С потерямиБит/(Пиксели*Кадры) : 0.362Временной код первого кадра : 00:00:00:00Оригинал временного кода : Group of pictures headerРазмер потока : 2,73 Гбайт (93%)Default : ДаForced : Нет
АудиоИдентификатор : 2Формат : MPEG AudioВерсия формата : Version 1Профиль формата : Layer 2Идентификатор кодека : A_MPEG/L2Идентификатор кодека/Подсказка : MP2Продолжительность : 1 ч. 43 м.Вид битрейта : ПостоянныйБитрейт : 192 Кбит/секКаналы : 2 каналаЧастота : 48,0 КГцМетод сжатия : С потерямиРазмер потока : 143 Мбайт (5%)Язык : RussianDefault : ДаForced : Нет

Скриншот c названием фильма

Скриншоты


Резервные скриншоты


-1'434/1'414√[-4]
[teatrix.ru].t4407.torrent 
Торрент: Зарегистрирован [ 2015-10-08 00:27 ] · A4330819A26503659E15633DC52A468FACDE671E

Скачать .torrent

Скачать

15 KB

Статус: проверено
Скачан: 0 раз
Размер: 2.93 GB
terms.php



Быстрый ответ

Имя:

      
Для отправки сообщений необходимо включить JavaScript
Показать сообщения:    

Текущее время: 11-Дек 07:14

Часовой пояс: UTC + 3


Вы можете начинать темы
Вы можете отвечать на сообщения
Вы не можете редактировать свои сообщения
Вы не можете удалять свои сообщения
Вы не можете голосовать в опросах
Вы не можете прикреплять файлы к сообщениям
Вы можете скачивать файлы