Ван Гог / Van Gogh / Поль Гоген / Paul Gauguin (Ален Рене / Alain Resnais) [1948, 1950 Франция, короткий метр, документальный, DVDRip] + Sub Rus + Original Fre


Статистика раздачи [Обновить пиров]
Размер:  409 MB   |    Зарегистрирован:  1 год 2 месяца   |    Скачан:  1 раз

Полного источника не было: 4 месяца 18 дней

 
   
 
 
 

[Цитировать]

Короткометражные фильмы Алена Рене
Ван Гог / Van Gogh
Страна: Франция
Жанр: короткий метр, документальный
Год выпуска: 1948
Продолжительность: 00:17:48
Перевод: субтитры
Cубтитры: русский
Оригинальная аудиодорожка: французский
Режиссер: Ален Рене / Alain Resnais
В ролях: Клод Дофен (голос)/Claude Dauphin (voice)
Описание: Картины Ван Гога на чёрно-белой плёнке – так рождается кино. Голос за кадром, семнадцать минут – так запечатлевается жизнь. Резкими штрихами, пастозными мазками. Нищета, одержимость цветом, растворение в природе, выстрел в сердце.
Поль Гоген / Paul Gauguin
Страна: Франция
Жанр: короткий метр, документальный
Год выпуска: 1950
Продолжительность: 00:12:25
Перевод: субтитры
Cубтитры: русский
Оригинальная аудиодорожка: французский
Режиссер: Ален Рене / Alain Resnais
В ролях: Жан Серве (голос)/Jean Servais (voice)
Описание: И картины Гогена тоже сняты на чёрно-белую плёнку – силуэты, лица, пейзажи. Весёлый и тоскливый Таити. Ночи без сна. Желание не врать себе.
Доп. информация: Перевод – Юрий Хвойнец, подготовка субтитров – alex-kin.
Огромная благодарность Lucky Luciano (КГ).

Сэмплы

Ван Гог
http://multi-up.com/975136
Поль Гоген
http://multi-up.com/975138

Техническая информация

Ван Гог
Качество видео: DVDRip
Формат видео: AVI
Видео: DivX Codec 5.1.1 at 1500 kbps, 0.20 bit/pixel, 624x480 (1.30:1) at 23.976 fps
Аудио: AC3 Dolby Digital at 384 kbps, 2/0 (L,R) ch, 48 kHz
Поль Гоген
Качество видео: DVDRip
Формат видео: AVI
Видео: DivX Codec 5.1.1 at 1499 kbps, 0.20 bit/pixel, 640x466 (1.37:1) at 23.976 fps
Аудио: AC3 Dolby Digital at 384 kbps, 2/0 (L,R) ch, 48 kHz

Субтитры

Формат субтитров: softsub (SRT)
Ван Гог
52
00:05:12,252 --> 00:05:15,256
Новая палитра, новые цвета.
53
00:05:21,417 --> 00:05:23,417
Новое чтение.
54
00:06:01,478 --> 00:06:03,478
На улицах и в кафе Монмартра
55
00:06:03,503 --> 00:06:05,503
он встречает других художников:
56
00:06:05,631 --> 00:06:08,063
Лотрека, Сёра, Гогена.
57
00:06:09,059 --> 00:06:11,059
Каждый из них ищет
58
00:06:11,063 --> 00:06:12,917
новый путь в искусстве.
59
00:06:35,235 --> 00:06:36,878
Но иногда, одинокими вечерами,
60
00:06:36,964 --> 00:06:39,439
эгоизм большого современного города
приводит его в отчаянье.
61
00:06:43,699 --> 00:06:46,032
Он грезит о других,
непреходящих радостях,
62
00:06:46,263 --> 00:06:48,263
о другом свете.
63
00:06:55,933 --> 00:06:59,800
Японские эстампы
в магазине папаши Танги
64
00:06:59,840 --> 00:07:01,120
завораживали его.
65
00:07:07,687 --> 00:07:09,660
Так же, как еще недавно он бежал
с голландских болотистых равнин,
66
00:07:09,664 --> 00:07:11,664
теперь он покидает
серые улочки Парижа,
67
00:07:12,825 --> 00:07:14,825
отправляясь навстречу солнцу.
68
00:07:16,937 --> 00:07:20,069
Оно больше не часть видений
и не изображено на японском эстампе.
69
00:07:33,194 --> 00:07:34,520
Солнце пылает так сильно,
70
00:07:34,520 --> 00:07:36,920
а цветы грезят о смерти
в руках того, кто их оборвет.
71
00:07:37,568 --> 00:07:40,195
Прованс, конец его путешествия.
72
00:08:05,281 --> 00:08:07,792
В пригородах Арля,
бродя днями и ночами,
73
00:08:07,899 --> 00:08:11,434
Ван Гог с пристрастием изучает.
Поль Гоген
36
00:02:45,714 --> 00:02:48,796
Теперь, оставшись без семьи и друзей,
37
00:02:49,562 --> 00:02:52,612
все, что я хочу, это покинуть Париж.
38
00:02:53,112 --> 00:02:55,270
Бедняку нечего делать в Париже".
39
00:03:29,720 --> 00:03:31,839
"Я просто живу рядом с океаном
40
00:03:31,839 --> 00:03:33,999
неподалеку от рыбацкой деревни,
41
00:03:34,499 --> 00:03:36,499
словно крестьянин,
42
00:03:36,555 --> 00:03:38,555
словно дикарь".
43
00:03:51,677 --> 00:03:53,714
"Я люблю Бретань.
44
00:03:54,706 --> 00:03:57,215
Я нахожу здесь дикость и примитивизм".
45
00:03:58,299 --> 00:04:01,334
"Когда их твердая обувь
касается камня
46
00:04:02,035 --> 00:04:04,991
я слышу всепроникающий звук,
это и есть пульсация бытия,
47
00:04:05,077 --> 00:04:07,202
которую я пытаюсь выразить
на своих картинах".
48
00:04:51,429 --> 00:04:54,080
"Я хорошо знаю, что меня
все меньше и меньше будут понимать.
49
00:05:00,109 --> 00:05:02,109
Вся моя работа за этот год,
50
00:05:02,329 --> 00:05:04,926
все, что я оставил позади,
этот воющий Париж,
51
00:05:05,074 --> 00:05:07,074
пришли сюда,
чтобы сбить меня с толку,
52
00:05:07,574 --> 00:05:09,574
чтобы показать мне,
что я больше не способен рисовать".
53
00:05:32,155 --> 00:05:34,918
"Все мои ценности были никчемны.
54
00:05:47,958 --> 00:05:49,782
Проклятый всеми теми, кого я знал,
55
00:05:50,023 --> 00:05:52,306
я должен был отправиться
на этот остров в Тихом океане
56
00:05:52,912 --> 00:05:55,680
и посвятить себя искусству".

MediaInfo

Ван Гог
Формат : AVI
Формат/Информация : Audio Video Interleave
Размер файла : 241 Мбайт
Продолжительность : 17 м.
Общий поток : 1894 Кбит/сек
Программа кодирования : VirtualDubMod 1.5.10.1 (build 2439/release)
Библиотека кодирования : VirtualDubMod build 2439/release
Видео
Идентификатор : 0
Формат : MPEG-4 Visual
Параметр BVOP формата : 1
Параметр QPel формата : Нет
Параметр GMC формата : Без точки перехода
Параметр матрицы формата : Default (H.263)
Режим смешивания : Сжатый битовый поток
Идентификатор кодека : DX50
Идентификатор кодека/Подсказка : DivX 5
Продолжительность : 17 м.
Битрейт : 1500 Кбит/сек
Ширина : 624 пикс.
Высота : 480 пикс.
Соотношение сторон : 1,300
Частота кадров : 25,000 кадр/сек
Цветовое пространство : YUV
Подвыборка цветности : 4:2:0
Битовая глубина : 8 бит
Тип развёртки : Прогрессивная
Метод сжатия : С потерями
Бит/(Пиксели*Кадры) : 0.200
Размер потока : 191 Мбайт (79%)
Библиотека кодирования : DivX 5.1.1 (Maupiti) (UTC 2003-11-19)
Аудио
Идентификатор : 1
Формат : AC-3
Формат/Информация : Audio Coding 3
Расширение режима : CM (complete main)
Идентификатор кодека : 2000
Продолжительность : 17 м.
Вид битрейта : Постоянный
Битрейт : 384 Кбит/сек
Канал(ы) : 2 канала(ов)
Расположение каналов : Front: L R
Частота : 48,0 КГц
Битовая глубина : 16 бит
Метод сжатия : С потерями
Задержка видео : 8 мс.
Размер потока : 48,9 Мбайт (20%)
Выравнивание : Разделение по промежуткам
Продолжительность промежутка : 40 мс. (1,00 видеокадр)
Поль Гоген
Формат : AVI
Формат/Информация : Audio Video Interleave
Размер файла : 168 Мбайт
Продолжительность : 12 м.
Общий поток : 1894 Кбит/сек
Программа кодирования : VirtualDubMod 1.5.10.1 (build 2439/release)
Библиотека кодирования : VirtualDubMod build 2439/release
Видео
Идентификатор : 0
Формат : MPEG-4 Visual
Параметр BVOP формата : 1
Параметр QPel формата : Нет
Параметр GMC формата : Без точки перехода
Параметр матрицы формата : Default (H.263)
Режим смешивания : Сжатый битовый поток
Идентификатор кодека : DX50
Идентификатор кодека/Подсказка : DivX 5
Продолжительность : 12 м.
Битрейт : 1500 Кбит/сек
Ширина : 640 пикс.
Высота : 466 пикс.
Соотношение сторон : 1,373
Частота кадров : 25,000 кадр/сек
Цветовое пространство : YUV
Подвыборка цветности : 4:2:0
Битовая глубина : 8 бит
Тип развёртки : Прогрессивная
Метод сжатия : С потерями
Бит/(Пиксели*Кадры) : 0.201
Размер потока : 133 Мбайт (79%)
Библиотека кодирования : DivX 5.1.1 (Maupiti) (UTC 2003-11-19)
Аудио
Идентификатор : 1
Формат : AC-3
Формат/Информация : Audio Coding 3
Расширение режима : CM (complete main)
Идентификатор кодека : 2000
Продолжительность : 12 м.
Вид битрейта : Постоянный
Битрейт : 384 Кбит/сек
Канал(ы) : 2 канала(ов)
Расположение каналов : Front: L R
Частота : 48,0 КГц
Битовая глубина : 16 бит
Метод сжатия : С потерями
Задержка видео : 8 мс.
Размер потока : 34,1 Мбайт (20%)
Выравнивание : Разделение по промежуткам
Продолжительность промежутка : 40 мс. (1,00 видеокадр)
Время предзагрузки промежутка : 500 ms

Скриншот c названием фильма

Ван Гог

Поль Гоген

Скриншоты

Ван Гог




Поль Гоген



[teatrix.ru].t4408.torrent 
Торрент: Зарегистрирован [ 2015-10-08 00:27 ] · 8DA6BD577063411ED4967B8B084EB53B108DAC41

Скачать .torrent

Скачать

33 KB

Статус: проверено
Скачан: 1 раз
Размер: 409 MB
terms.php



Быстрый ответ

Имя:

      
Для отправки сообщений необходимо включить JavaScript
Показать сообщения:    

Текущее время: 10-Дек 21:37

Часовой пояс: UTC + 3


Вы можете начинать темы
Вы можете отвечать на сообщения
Вы не можете редактировать свои сообщения
Вы не можете удалять свои сообщения
Вы не можете голосовать в опросах
Вы не можете прикреплять файлы к сообщениям
Вы можете скачивать файлы