Необыкновенное путешествие / Чрезвычайное путешествие / Le voyage extraordinaire / The Extraordinary Voyage (Серж Бромберг / Serge Bromberg, Эрик Ланж / Eric Lange) [2011, Франция, документальный, кинематограф, DVB] Original (Fre) + Sub (rus)


Статистика раздачи [Обновить пиров]
Размер:  2.13 GB   |    Зарегистрирован:  1 год 2 месяца   |    Скачан:  0 раз

Полного источника не было: Никогда

 
   
 
 
 

[Цитировать]

Необыкновенное путешествие
Le voyage extraordinaire- Страна: Франция
Жанр: документальный, кинематограф
Год выпуска: 2011
Продолжительность: 01:03:40
Перевод: Субтитры (перевод Е. Маньен, Éclair Group)
Cубтитры: русские
Оригинальная аудиодорожка: французскийРежиссер: Серж Бромберг / Serge Bromberg, Эрик Ланж / Eric Lange
В ролях: Коста-Гаврас, Жан-Пьер Жене, Мишель Гондри, Мишель Хазанавичус, Том Хэнкс, Жорж Мельес (Archive)
Описание: Жорж Мельес – первый кинорежиссер, перешедший от простой фиксации реальных событий и бытовых сценок к съемкам постановочных, художественных фильмов. Он вводит в кино новые жанры феерии, комедии, снимает сценки с трюками. Жорж Мельес пытается даже перейти от черно-белого кино к цветному, применяя метод раскраски фильмов вручную.
В 1902 году выходит один из лучших его фильмов – "Путешествие на Луну". Этим фильмом Мельес удивил современников, сочетая кинотрюки с использованием макетов и театральной машинерии. Режиссёр соединил легкий наивный юмор театральной буффонады с фантастической сказкой, рассказывающей о приключениях нескольких чудаков-астрономов, отправившихся в пушечном снаряде на Луну. (анонс канала "Культура")
Доп. информация: TV5MONDE DVB-S. В отличие от имеющихся на трекере релизов с переводом канала "Культура", в данной раздаче оригинальная звуковая дорожка + перевод – русские субтитры – проф. перевод Éclair Group для канала TV5MONDE. Во время английской речи на экране дополнительно вшитые французские субтитры.
Участник Cannes Film Festival 2012; International Film Festival Rotterdam 2012.
http://www.imdb.com/title/tt2134092/
Сэмпл: http://multi-up.com/977692
Качество видео: DVB
Формат видео: MKV
Видео: MPEG Video 2, 704x576@1024x576 (16:9), 25 fps, ~4491 kbps avg, 0.443 bit/pixel
Аудио: Французский (48 kHz, MPEG Audio 2, 2 ch, ~192.00 kbps avg)
Формат субтитров: hardsub (неотключаемые)

MediaInfo

ОбщееУникальный идентификатор : 181350656046179530188175621232211822999 (0x886EDDAB0E643737A083C983A0B08997)Полное имя : H:\My Torrents\[apreder]Le_voyage_extraordinaire(2011)DVB.mkvФормат : MatroskaВерсия формата : Version 2Размер файла : 2,13 ГбайтПродолжительность : 1 ч. 3 м.Режим общего битрейта : ПеременныйОбщий поток : 4778 Кбит/секДата кодирования : UTC 2014-06-02 10:16:24Программа кодирования : mkvmerge v6.9.1 ('Blue Panther') 32bit built on Apr 18 2014 18:15:44Библиотека кодирования : libebml v1.3.0 + libmatroska v1.4.1
ВидеоИдентификатор : 1Формат : MPEG VideoВерсия формата : Version 2Профиль формата : Main@MainПараметр BVOP формата : НетПараметр матрицы формата : ВыборочнаяИдентификатор кодека : V_MPEG2Идентификатор кодека/Информация : MPEG 1 or 2 VideoПродолжительность : 1 ч. 3 м.Вид битрейта : ПеременныйБитрейт : 4491 Кбит/секМаксимальный битрейт : 8372 Кбит/секШирина : 704 пикселяВысота : 576 пикселейСоотношение сторон : 16:9Режим частоты кадров : ПостоянныйЧастота кадров : 25,000 кадров/секСтандарт вещания : PALЦветовое пространство : YUVСубдискретизация насыщенности : 4:2:0Битовая глубина : 8 битТип развёртки : ПрогрессивнаяПорядок развёртки : Верхнее поле первоеМетод сжатия : С потерямиБит/(Пиксели*Кадры) : 0.443Временной код первого кадра : 00:00:00:00Оригинал временного кода : Group of pictures headerРазмер потока : 2,00 Гбайт (94%)Default : ДаForced : Нет
АудиоИдентификатор : 2Формат : MPEG AudioВерсия формата : Version 1Профиль формата : Layer 2Идентификатор кодека : A_MPEG/L2Идентификатор кодека/Подсказка : MP2Продолжительность : 1 ч. 3 м.Вид битрейта : ПостоянныйБитрейт : 192 Кбит/секКаналы : 2 каналаЧастота : 48,0 КГцМетод сжатия : С потерямиРазмер потока : 87,4 Мбайт (4%)Язык : FrenchDefault : ДаForced : Нет

Скриншот c названием фильма

Скриншоты


Резервные скриншоты


-1'402/1'382√[-4]
[teatrix.ru].t4409.torrent 
Торрент: Зарегистрирован [ 2015-10-08 00:27 ] · EAAD81C456A825AD528068F6163A09240E17E1B3

Скачать .torrent

Скачать

11 KB

Статус: проверено
Скачан: 0 раз
Размер: 2.13 GB
terms.php



Быстрый ответ

Имя:

      
Для отправки сообщений необходимо включить JavaScript
Показать сообщения:    

Текущее время: 10-Дек 21:37

Часовой пояс: UTC + 3


Вы можете начинать темы
Вы можете отвечать на сообщения
Вы не можете редактировать свои сообщения
Вы не можете удалять свои сообщения
Вы не можете голосовать в опросах
Вы не можете прикреплять файлы к сообщениям
Вы можете скачивать файлы