Две фигуры эпохи "новой волны": Жан-Люк Годар и Франсуа Трюффо / Deux de la Vague, Godard et Truffaut / Two in the Wave (Эммануэль Лоран / Emmanuel Laurent) [2010, Франция, документальный, кинематограф, DVB] Original (Fre) + Sub (rus)


Статистика раздачи [Обновить пиров]
Размер:  3.17 GB   |    Зарегистрирован:  1 год 1 месяц   |    Скачан:  1 раз

Полного источника не было: 1 месяц 1 день

 
   
 
 
 

[Цитировать]

Две фигуры эпохи "новой волны": Жан-Люк Годар и Франсуа Трюффо
Deux de la Vague, Godard et Truffaut- Страна: Франция
Жанр: документальный, арт-хаус, кинематограф
Год выпуска: 2010
Продолжительность: 01:32:25
Перевод: Субтитры (перевод М. Кузиной, Éclair Group)
Cубтитры: русские
Оригинальная аудиодорожка: французский
Режиссер: Эммануэль Лоран / Emmanuel LaurentВ ролях: Жан-Люк Годар / Jean-Luc Godard, Франсуа Трюффо / François Truffaut, Жан-Пьер Лео / Jean-Pierre Léaud, Жан-Поль Бельмондо / Jean-Paul Belmondo, Ив Монтан / Yves Montand, Марина Влади / Marina Vlady, Бернадетт Лафон / Bernadette Lafont, Жан Кокто / Jean Cocteau, Изильд Ле Беско / Isild Le Besco
Описание: Перелистывая старые журналы, перебирая пожелтевшие от времени фотографии, вспоминая сюжеты знаменитых кинофильмов и просматривая кадры кинохроники французская актриса и режиссер, одна из самых заметных фигур современного независимого кино, прославившаяся благодаря ролям в фильмах Бенуа Жако, Изильд Ле Беско проведет нас лабиринтами двух мятущихся душ.
На основе редких архивных материалов создан увлекательный и трогательный фильм о дружбе и творческих разногласиях двух лидеров французской "новой волны" режиссерах Франсуа Трюффо и Жане-Люке Годаре, безоговорочно завоевавших мир кино в конце 1950-х – начале 1960-х годов.
Их дружба завязалась во время первой встречи на Каннском кинофестивале 1959 года, где фильм Трюффо "Четыреста ударов" получил "Золотую пальмовую ветвь". Через 9 лет их дружба закончилась на том же фестивале в Каннах после ожесточенной ссоры из-за разногласий во взглядах на политические события тех лет.
Доп. информация: TV5MONDE DVB-S
Участник Cannes Film Festival 2010; Berlin International Film Festival 2010 и др.
http://www.imdb.com/title/tt1528224/
Сэмпл: http://multi-up.com/976888
Качество видео: DVB
Формат видео: MKV
Видео: MPEG Video 2, 704x576@1024x576 (16:9), 25 fps, ~4613 kbps avg, 0.455 bit/pixel
Аудио: Французский (48 kHz, MPEG Audio 2, 2 ch, ~192.00 kbps avg)
Формат субтитров: hardsub (неотключаемые)

MediaInfo

ОбщееУникальный идентификатор : 241567110123526481751734003985943185661 (0xB5BC22129E6353F8811D77ED9CD948FD)Полное имя : H:\My Torrents\[apreder]Deux_de_la_Vague(2010)DVB.mkvФормат : MatroskaВерсия формата : Version 2Размер файла : 3,17 ГбайтПродолжительность : 1 ч. 32 м.Режим общего битрейта : ПеременныйОбщий поток : 4903 Кбит/секДата кодирования : UTC 2014-05-29 14:02:35Программа кодирования : mkvmerge v6.9.1 ('Blue Panther') 32bit built on Apr 18 2014 18:15:44Библиотека кодирования : libebml v1.3.0 + libmatroska v1.4.1
ВидеоИдентификатор : 1Формат : MPEG VideoВерсия формата : Version 2Профиль формата : Main@MainПараметр BVOP формата : НетПараметр матрицы формата : ВыборочнаяИдентификатор кодека : V_MPEG2Идентификатор кодека/Информация : MPEG 1 or 2 VideoПродолжительность : 1 ч. 32 м.Вид битрейта : ПеременныйБитрейт : 4613 Кбит/секМаксимальный битрейт : 8658 Кбит/секШирина : 704 пикселяВысота : 576 пикселейСоотношение сторон : 16:9Режим частоты кадров : ПостоянныйЧастота кадров : 25,000 кадров/секСтандарт вещания : PALЦветовое пространство : YUVСубдискретизация насыщенности : 4:2:0Битовая глубина : 8 битТип развёртки : ПрогрессивнаяПорядок развёртки : Верхнее поле первоеМетод сжатия : С потерямиБит/(Пиксели*Кадры) : 0.455Временной код первого кадра : 00:00:00:00Оригинал временного кода : Group of pictures headerРазмер потока : 2,98 Гбайт (94%)Default : ДаForced : Нет
АудиоИдентификатор : 2Формат : MPEG AudioВерсия формата : Version 1Профиль формата : Layer 2Идентификатор кодека : A_MPEG/L2Идентификатор кодека/Подсказка : MP2Продолжительность : 1 ч. 32 м.Вид битрейта : ПостоянныйБитрейт : 192 Кбит/секКаналы : 2 каналаЧастота : 48,0 КГцМетод сжатия : С потерямиРазмер потока : 127 Мбайт (4%)Язык : FrenchDefault : ДаForced : Нет

Скриншот c названием фильма

Скриншоты


Резервные скриншоты


-1'393/1'373√[-4]
[teatrix.ru].t4410.torrent 
Торрент: Зарегистрирован [ 2015-10-08 00:27 ] · B65CD8C007A39DC5C6908890F2B4D6E128287BF5

Скачать .torrent

Скачать

16 KB

Статус: проверено
Скачан: 1 раз
Размер: 3.17 GB
terms.php



Быстрый ответ

Имя:

      
Для отправки сообщений необходимо включить JavaScript
Показать сообщения:    

Текущее время: 03-Дек 01:19

Часовой пояс: UTC + 3


Вы можете начинать темы
Вы можете отвечать на сообщения
Вы не можете редактировать свои сообщения
Вы не можете удалять свои сообщения
Вы не можете голосовать в опросах
Вы не можете прикреплять файлы к сообщениям
Вы можете скачивать файлы