Изображение и текст / Art & Copy (Даг Прэй / Doug Pray) [2009, США, документальный, искусство рекламы, DVB] DVO (Селена Интернешнл)


Статистика раздачи [Обновить пиров]
Размер:  1.02 GB   |    Зарегистрирован:  1 год 1 месяц   |    Скачан:  1 раз

Полного источника не было: 3 месяца 6 дней

 
   
 
 
 

[Цитировать]

Изображение и текст
Art & Copy- Страна: США
Жанр: документальный, искусство рекламы
Год выпуска: 2009
Продолжительность: 00:53:41Перевод: Профессиональный (двухголосый закадровый) Компания "Селена Интернешнл" по заказу канала "24ДОК"
Cубтитры: нет
Режиссер: Даг Прэй / Doug Pray
В ролях: Джордж Лоис / George Lois, Чарли Мосс / Charlie Moss, Ли Клоу / Lee Clow
Описание: Фильм о рекламе и вдохновении. Фильм о работе самых влиятельных рекламщиков – людей, оказывающих большое влияние на современную культуру, но при этом абсолютно неизвестных за пределами индустрии. Начиная с 60-ых эти художники и авторы привносили бунтарский дух своих работ в бизнес, который чаще всего ассоциируется с посредственностью и манипуляциями. (анонс канала "24ДОК")
Доп. информация: 24ДОК DVB-S
Награды: номинация на Гран-при Sundance Film Festival 2009 за лучший документальный фильм; приз за выдающиеся достижения в режиссуре Newport Beach Film Festival 2009; приз "Эмми" за выдающуюся программу по культуре и искусству News & Documentary Emmy Awards 2011.
http://www.imdb.com/title/tt1333631/
Сэмпл: http://multi-up.com/975965
Качество видео: DVB
Формат видео: MKV
Видео: MPEG Video 2, 720x576@768x576 (4:3), 25 fps, ~2465 kbps avg, 0.238 bit/pixel
Аудио: 48 kHz, MPEG Audio 2, 2 ch, ~192.00 kbps avg

MediaInfo

ОбщееУникальный идентификатор : 234299022314588911442663870215297401190 (0xB04459AD5E2527E487A087B5A1CB8166)Полное имя : H:\My Torrents\[apreder]Art_&_Copy(2009)DVB.mkvФормат : MatroskaВерсия формата : Version 2Размер файла : 1,02 ГбайтПродолжительность : 53 м.Режим общего битрейта : ПеременныйОбщий поток : 2711 Кбит/секДата кодирования : UTC 2014-05-25 09:52:34Программа кодирования : mkvmerge v6.9.1 ('Blue Panther') 32bit built on Apr 18 2014 18:15:44Библиотека кодирования : libebml v1.3.0 + libmatroska v1.4.1
ВидеоИдентификатор : 1Формат : MPEG VideoВерсия формата : Version 2Профиль формата : Main@MainПараметр BVOP формата : НетПараметр матрицы формата : ВыборочнаяИдентификатор кодека : V_MPEG2Идентификатор кодека/Информация : MPEG 1 or 2 VideoПродолжительность : 53 м.Вид битрейта : ПеременныйБитрейт : 2465 Кбит/секШирина : 720 пикселейВысота : 576 пикселейСоотношение сторон : 4:3Режим частоты кадров : ПостоянныйЧастота кадров : 25,000 кадров/секСтандарт вещания : PALЦветовое пространство : YUVСубдискретизация насыщенности : 4:2:0Битовая глубина : 8 битТип развёртки : ЧересстрочнаяПорядок развёртки : Верхнее поле первоеМетод сжатия : С потерямиБит/(Пиксели*Кадры) : 0.238Временной код первого кадра : 00:00:00:00Оригинал временного кода : Group of pictures headerРазмер потока : 947 Мбайт (91%)Default : ДаForced : Нет
АудиоИдентификатор : 2Формат : MPEG AudioВерсия формата : Version 1Профиль формата : Layer 2Идентификатор кодека : A_MPEG/L2Идентификатор кодека/Подсказка : MP2Продолжительность : 53 м.Вид битрейта : ПостоянныйБитрейт : 192 Кбит/секКаналы : 2 каналаЧастота : 48,0 КГцМетод сжатия : С потерямиРазмер потока : 73,7 Мбайт (7%)Язык : RussianDefault : ДаForced : Нет

Скриншот c названием фильма

Скриншоты


Резервные скриншоты


-1'388/1'368√[-4]
[teatrix.ru].t4412.torrent 
Торрент: Зарегистрирован [ 2015-10-08 00:27 ] · 403D41E8255D73DC7AAEE2135DFD9E7876D3EEAB

Скачать .torrent

Скачать

11 KB

Статус: проверено
Скачан: 1 раз
Размер: 1.02 GB
terms.php



Быстрый ответ

Имя:

      
Для отправки сообщений необходимо включить JavaScript
Показать сообщения:    

Текущее время: 04-Дек 17:16

Часовой пояс: UTC + 3


Вы можете начинать темы
Вы можете отвечать на сообщения
Вы не можете редактировать свои сообщения
Вы не можете удалять свои сообщения
Вы не можете голосовать в опросах
Вы не можете прикреплять файлы к сообщениям
Вы можете скачивать файлы