Тридцать четыре дня абсолютного покоя / 34 Dnu Absolutniho Klidu (Эло Гаветта / Elo Havetta) [1965, Чехословакия, короткометражный, документальный, притча, DVDRip] Sub Rus (F\\G)


Статистика раздачи [Обновить пиров]
Размер:  232 MB   |    Зарегистрирован:  1 год 2 месяца   |    Скачан:  0 раз

Полного источника не было: Никогда

 
   
 
 
 

[Цитировать]

Тридцать четыре дня абсолютного покоя / 34 Dnu Absolutniho Klidu
Страна: Чехословакия
Жанр: короткометражный, документальный, притча
Год выпуска: 1965
Продолжительность: 00:17:19
Перевод: Субтитры F\G
Cубтитры: русские
Оригинальная аудиодорожка: немой
Режиссер: Эло Гаветта / Elo Havetta
В ролях: бурильщик Йозеф Вальтер / Josef Walter
Описание: Студенческая работа словацкого режиссера Эло Гаветта, снятая на втором курсе во время учебы в пражском ФАМУ.
История про испытателя скважин с питьевой водой Йозефа, открывающаяся вымышленной цитатой из Даниэля Дефо, превращается в историю современного Робинзона в строительном вагончике посредине выжигаемого от жары летнего поля. Фильм озвучен музыкой и шумами, сопровождается ироническим комментарием в виде интертиров.
"...Я снял так называемый документальный фильм, который приближается к стилизации: испытатель-бурильщик вдали от людей, жанровый документальный фильм, но все же нечто совершенно иное, в нем много аналогий с немым кино, даже немного гротеска. При том, это тот же человек, но подведенный под некое преувеличение, гиперболу" (Эло Гаветта в беседе с Антонином Лимом, КЗ №91 М.: 2009)
Качество видео: DVDRip
Формат видео: AVI
Видео: Video: Xvid 640x480 25fps 1741kbps [V: mpeg4 advanced simple profile, yuv420p, 640x480, 1741 kb/s]
Аудио: Audio: MP3 48000Hz stereo 120kbps [A: mp3, 48000 Hz, stereo, 120 kb/s]

MediaInfo

General
Complete name : C:\Users\93871\Videos\Фильмы\34 дня абсолютного покоя (1965, Гаветта)\34 Dnu Absolutniho Klidu (1965).avi
Format : AVI
Format/Info : Audio Video Interleave
File size : 232 MiB
Duration : 17mn 19s
Overall bit rate mode : Variable
Overall bit rate : 1 874 Kbps
Writing application : VirtualDubMod 1.5.10.2 (build 2540/release)
Writing library : VirtualDub build 32706/release
Video
ID : 0
Format : MPEG-4 Visual
Format profile : Advanced Simple@L5
Format settings, BVOP : Yes
Format settings, QPel : No
Format settings, GMC : No warppoints
Format settings, Matrix : Default (H.263)
Codec ID : XVID
Codec ID/Hint : XviD
Duration : 17mn 19s
Bit rate : 1 741 Kbps
Width : 640 pixels
Height : 480 pixels
Display aspect ratio : 4:3
Frame rate : 25.000 fps
Color space : YUV
Chroma subsampling : 4:2:0
Bit depth : 8 bits
Scan type : Progressive
Compression mode : Lossy
Bits/(Pixel*Frame) : 0.227
Stream size : 216 MiB (93%)
Writing library : XviD 1.2.1 (UTC 2008-12-04)
Audio
ID : 1
Format : MPEG Audio
Format version : Version 1
Format profile : Layer 3
Mode : Joint stereo
Mode extension : MS Stereo
Codec ID : 55
Codec ID/Hint : MP3
Duration : 17mn 19s
Bit rate mode : Variable
Bit rate : 120 Kbps
Nominal bit rate : 128 Kbps
Channel(s) : 2 channels
Sampling rate : 48.0 KHz
Compression mode : Lossy
Stream size : 14.9 MiB (6%)
Alignment : Aligned on interleaves
Interleave, duration : 24 ms (0.60 video frame)
Interleave, preload duration : 517 ms
Writing library : LAME3.90.
Encoding settings : -m j -V 4 -q 2 -lowpass 17.6 --abr 128

Скриншот c названием фильма

Скриншоты

[teatrix.ru].t4413.torrent 
Торрент: Зарегистрирован [ 2015-10-08 00:27 ] · 45D62CD2B37D101F70C20A66F4182F1C640BFEC2

Скачать .torrent

Скачать

19 KB

Статус: проверено
Скачан: 0 раз
Размер: 232 MB
terms.php



Быстрый ответ

Имя:

      
Для отправки сообщений необходимо включить JavaScript
Показать сообщения:    

Текущее время: 10-Дек 09:55

Часовой пояс: UTC + 3


Вы можете начинать темы
Вы можете отвечать на сообщения
Вы не можете редактировать свои сообщения
Вы не можете удалять свои сообщения
Вы не можете голосовать в опросах
Вы не можете прикреплять файлы к сообщениям
Вы можете скачивать файлы