Прощание с детством / Only the Young (Джейсон Типпет / Jason Tippet, Элизабет Мимс / Elizabeth Mims) [2012, США, документальный, романтическая комедия, DVB] DVO (24ДОК)


Статистика раздачи [Обновить пиров]
Размер:  1 GB   |    Зарегистрирован:  1 год 2 месяца   |    Скачан:  0 раз

Полного источника не было: Никогда

 
   
 
 
 

[Цитировать]

Прощание с детством
Only the Young- Страна: США
Жанр: документальный, романтическая комедия
Год выпуска: 2012
Продолжительность: 01:08:51Перевод: Профессиональный (двухголосый закадровый) 24ДОК
Cубтитры: нет
Режиссер: Джейсон Типпет / Jason Tippet, Элизабет Мимс / Elizabeth Mims
В ролях: Гаррисон Саенз / Garrison Saenz, Кевин Конвей / Kevin Conway, Скай Элмор / Skye Elmore
Описание: Гаррисон и Кевин живут в маленьком городке, где совершенно нечего делать. Они создают свой собственный мир, позволяющий уйти от унылой реальности, часами катаясь по пустынным окрестностям на скейтбордах. Скай – сильная, красивая, не по годам мудрая девушка. Она пытается помешать банку отобрать дом, в котором выросла. Для трех подростков это лето приключений, первой любви и расставаний. Герои взрослеют, и знакомый им мир меняется навсегда. (анонс канала "24ДОК")
Доп. информация: 24ДОК DVB-S
Награды: включен в TOP5 лучших документальных фильмов National Board of Review (USA) 2012; почетный приз Philadelphia Film Festival 2012 за лучший документальный фильм; номинация Independent Spirit Awards 2013 в категории "Лучше, чем художественный фильм".
http://www.imdb.com/title/tt2085888/
Сэмпл: http://multi-up.com/974248
Качество видео: DVB
Формат видео: MKV
Видео: MPEG Video 2, 720x576@768x576 (4:3), 25 fps, ~1850 kbps avg, 0.178 bit/pixel
Аудио: 48 kHz, MPEG Audio 2, 2 ch, ~192.00 kbps avg

MediaInfo

ОбщееУникальный идентификатор : 241925096258925689039660129855023900160 (0xB6011426E35055DCBD3D649044306600)Полное имя : H:\My Torrents\[apreder]Only_the_Young(2012)DVB.mkvФормат : MatroskaВерсия формата : Version 2Размер файла : 1,00 ГбайтПродолжительность : 1 ч. 8 м.Режим общего битрейта : ПеременныйОбщий поток : 2083 Кбит/секДата кодирования : UTC 2014-05-17 07:00:52Программа кодирования : mkvmerge v6.9.1 ('Blue Panther') 32bit built on Apr 18 2014 18:15:44Библиотека кодирования : libebml v1.3.0 + libmatroska v1.4.1
ВидеоИдентификатор : 1Формат : MPEG VideoВерсия формата : Version 2Профиль формата : Main@MainПараметр BVOP формата : НетПараметр матрицы формата : ВыборочнаяИдентификатор кодека : V_MPEG2Идентификатор кодека/Информация : MPEG 1 or 2 VideoПродолжительность : 1 ч. 8 м.Вид битрейта : ПеременныйБитрейт : 1850 Кбит/секМаксимальный битрейт : 5210 Кбит/секШирина : 720 пикселейВысота : 576 пикселейСоотношение сторон : 4:3Режим частоты кадров : ПостоянныйЧастота кадров : 25,000 кадров/секСтандарт вещания : PALЦветовое пространство : YUVСубдискретизация насыщенности : 4:2:0Битовая глубина : 8 битТип развёртки : ЧересстрочнаяПорядок развёртки : Верхнее поле первоеМетод сжатия : С потерямиБит/(Пиксели*Кадры) : 0.178Временной код первого кадра : 00:00:00:00Оригинал временного кода : Group of pictures headerРазмер потока : 911 Мбайт (89%)Default : ДаForced : Нет
АудиоИдентификатор : 2Формат : MPEG AudioВерсия формата : Version 1Профиль формата : Layer 2Идентификатор кодека : A_MPEG/L2Идентификатор кодека/Подсказка : MP2Продолжительность : 1 ч. 8 м.Вид битрейта : ПостоянныйБитрейт : 192 Кбит/секКаналы : 2 каналаЧастота : 48,0 КГцМетод сжатия : С потерямиРазмер потока : 94,6 Мбайт (9%)Язык : RussianDefault : ДаForced : Нет

Скриншот c названием фильма

Скриншоты


Резервные скриншоты


-1'366/1'346√[-4]
[teatrix.ru].t4414.torrent 
Торрент: Зарегистрирован [ 2015-10-08 00:27 ] · 65C85F3140FCFDAB92F8AB94532E1270DB046AD8

Скачать .torrent

Скачать

11 KB

Статус: проверено
Скачан: 0 раз
Размер: 1 GB
terms.php



Быстрый ответ

Имя:

      
Для отправки сообщений необходимо включить JavaScript
Показать сообщения:    

Текущее время: 08-Дек 19:12

Часовой пояс: UTC + 3


Вы можете начинать темы
Вы можете отвечать на сообщения
Вы не можете редактировать свои сообщения
Вы не можете удалять свои сообщения
Вы не можете голосовать в опросах
Вы не можете прикреплять файлы к сообщениям
Вы можете скачивать файлы