Все на улицу / Everybody Street (Шерил Данн / Cheryl Dunn) [2013, США, Сербия и Черногория, документальный, биографический, DVDRip] + Sub Rus + Original Eng


Статистика раздачи [Обновить пиров]
Размер:  1.52 GB   |    Зарегистрирован:  1 год 2 месяца   |    Скачан:  0 раз

Полного источника не было: Никогда

 
   
 
 
 

[Цитировать]

Все на улицу / Everybody Street
Страна: США, Сербия и Черногория
Жанр: документальный, биографический
Год выпуска: 2013
Продолжительность: 01:40:27
Перевод: субтитры
Cубтитры: русский
Оригинальная аудиодорожка: английский
Режиссер: Шерил Данн / Cheryl Dunn
В ролях: Буги/Boogie, Марта Купер/Martha Cooper , Брюс Дэвидсон/Bruce Davidson, Эллиотт Эрвитт/Elliott Erwitt, Брюс Гильден/Bruce Gilden, Макс Козлофф/Max Kozloff, Мэри Эллен Марк/Mary Ellen Mark, Джефф Мермельштейн/Jeff Mermelstein, Джоэл Мейеровиц/Joel Meyerowitz, Клейтон Паттерсон/Clayton Patterson, Рики Пауэлл/Ricky Powell
Описание: Everybody street – документальный фильм, в котором показано, как работают знаменитые нью-йоркские уличные фотографы (Элиот Эрвитт, Джоэл Мейеровиц, Брюс Гильден, Брюс Дэвидсон, Буги и другие). Режиссёр и оператор фильма Шерил Данн, сопровождающая фотографов во время их прогулок по городу, сама занимается стрит-фотографией, и её фильм можно считать нескончаемым потоком стрит-видео, саундтреком к которому идут разговоры о фотографии.
Доп. информация: Перевод и тайминг – Abris, подготовка субтитров – alex-kin.
ВНИМАНИЕ! Торрент перезалит, добавлены альтернативные субтитры пользователя peayq, за что ему огромная благодарность!
Сэмпл: http://rusfolder.com/40370815
Качество видео: DVDRip
Формат видео: MP4
Видео: AVC at 2389 kbps, 0.108 bit/pixel, 1280x720 (16:9) at 23,976 fps
Аудио: AAC at 160 kbps, 2 ch, 48 kHz

Субтитры

Формат субтитров: softsub (SRT)
Фрагмент субтитров
383
00:37:11,290 --> 00:37:14,565
Но они следили за нами,
так как чувствовали,
384
00:37:14,964 --> 00:37:18,239
что нам близка философия
рабочего класса
385
00:37:18,983 --> 00:37:22,008
и бедных людей.
386
00:37:43,807 --> 00:37:45,702
Что ты будешь делать
с этим видео?
387
00:37:46,070 --> 00:37:49,100
Не знаю. Возможно, когда-то
оно будет что-то значить.
388
00:37:49,406 --> 00:37:52,101
- Да, может быть.
- Ты тоже будешь что-то значить.
389
00:37:52,406 --> 00:37:53,031
Да.
390
00:37:55,696 --> 00:37:58,971
Думаю, Нью-Йорк это единственное
место, которое мне подходит.
391
00:37:59,429 --> 00:38:02,504
Я родился на западе Канады. Там всё
очень провинциально, консервативно
392
00:38:02,806 --> 00:38:05,301
и в каком-то роде отстало.
393
00:38:05,306 --> 00:38:08,401
Не знаю, что это - жажда жизни,
амбиции или что-то в этом роде,
394
00:38:08,701 --> 00:38:13,306
но я действительно хотел плавать
в самом большом бассейне.
395
00:38:13,606 --> 00:38:17,301
Так что я нырнул на самую большую
глубину и оказался в Нижнем Ист-Сайде.
396
00:38:17,600 --> 00:38:20,365
Нельзя было и придумать
лучшего места для меня.
397
00:38:20,825 --> 00:38:22,300
Тут царила преступность и наркомания,
398
00:38:22,606 --> 00:38:25,801
но зато я нашёл целый класс людей,
с которыми я мог себя идентифицировать.
399
00:38:26,106 --> 00:38:30,100
Так что я отлично вписался в эту среду.
400
00:38:30,401 --> 00:38:35,506
Здесь всё было пропитано энергией
свободы, беззакония и жизни в диких условиях.
401
00:38:35,806 --> 00:38:38,521
И мне это нравилось.
402
00:38:41,650 --> 00:38:43,925
Всё это время
403
00:38:44,249 --> 00:38:48,204
я постоянно снимал людей
напротив моей двери,
404
00:38:48,563 --> 00:38:51,308
а потом выставлял фотографии в окне,
и эти люди становились знаменитыми.

MediaInfo

Качество: mp4
Формат: MPEG-4
Видео кодек: AVC
Аудио кодек: AAC
Видео: AVC at 2389 kbps, 0.108 bit/pixel, 1280x720 (16:9) at 23,976 fps
Аудио: AAC at 160 kbps, 2 ch, 48 kHz
Отчет MediaInfo
Формат : MPEG-4
Профиль формата : Base Media / Version 2
Идентификатор кодека : mp42
Размер файла : 1,52 Гбайт
Продолжительность : 1 ч. 25 м.
Общий поток : 2553 Кбит/сек
Дата кодирования : UTC 2013-11-05 21:39:49
Дата пометки : UTC 2013-11-05 21:39:49
Видео
Идентификатор : 1
Формат : AVC
Формат/Информация : Advanced Video Codec
Профиль формата : Main@L3.1
Параметр CABAC формата : Да
Параметр ReFrames формата : 4 кадры
Идентификатор кодека : avc1
Идентификатор кодека/Информация : Advanced Video Coding
Продолжительность : 1 ч. 25 м.
Вид битрейта : Переменный
Битрейт : 2389 Кбит/сек
Ширина : 1280 пикс.
Высота : 720 пикс.
Соотношение сторон : 16:9
Режим частоты кадров : Постоянный
Частота кадров : 23,976 кадр/сек
Цветовое пространство : YUV
Подвыборка цветности : 4:2:0
Битовая глубина : 8 бит
Тип развёртки : Прогрессивная
Бит/(Пиксели*Кадры) : 0.108
Размер потока : 1,42 Гбайт (94%)
Библиотека кодирования : x264 core 138 r2358 9e941d1
Настройки программы : cabac=1 / ref=1 / deblock=1:0:0 / analyse=0x1:0 / me=dia / subme=2 / psy=1 / psy_rd=1.00:0.00 / mixed_ref=0 / me_range=16 / chroma_me=1 / trellis=0 / 8x8dct=0 / cqm=0 / deadzone=21,11 / fast_pskip=1 / chroma_qp_offset=0 / threads=12 / lookahead_threads=4 / sliced_threads=0 / nr=0 / decimate=1 / interlaced=0 / bluray_compat=0 / stitchable=1 / constrained_intra=0 / bframes=3 / b_pyramid=2 / b_adapt=1 / b_bias=0 / direct=1 / weightb=1 / open_gop=0 / weightp=2 / keyint=72 / keyint_min=24 / scenecut=40 / intra_refresh=0 / rc_lookahead=40 / rc=crf / mbtree=1 / crf=20.0 / qcomp=0.60 / qpmin=5 / qpmax=69 / qpstep=4 / vbv_maxrate=3750 / vbv_bufsize=12500 / crf_max=0.0 / nal_hrd=none / ip_ratio=1.40 / aq=1:1.00
Дата кодирования : UTC 2013-11-05 21:39:49
Дата пометки : UTC 2013-11-05 21:39:49
Аудио
Идентификатор : 2
Формат : AAC
Формат/Информация : Advanced Audio Codec
Профиль формата : LC
Идентификатор кодека : 40
Продолжительность : 1 ч. 25 м.
Вид битрейта : Переменный
Битрейт : 160 Кбит/сек
Канал(ы) : 2 канала(ов)
Расположение каналов : Front: L R
Частота : 48,0 КГц
Метод сжатия : С потерями
Размер потока : 97,4 Мбайт (6%)
Дата кодирования : UTC 2013-11-05 21:39:49
Дата пометки : UTC 2013-11-05 21:39:49

Скриншот c названием фильма

Скриншоты




[teatrix.ru].t4417.torrent 
Торрент: Зарегистрирован [ 2015-10-08 00:27 ] · 532E2882FF442B9409DF47B01C7D4FB49D507CE7

Скачать .torrent

Скачать

31 KB

Статус: проверено
Скачан: 0 раз
Размер: 1.52 GB
terms.php



Быстрый ответ

Имя:

      
Для отправки сообщений необходимо включить JavaScript
Показать сообщения:    

Текущее время: 10-Дек 10:00

Часовой пояс: UTC + 3


Вы можете начинать темы
Вы можете отвечать на сообщения
Вы не можете редактировать свои сообщения
Вы не можете удалять свои сообщения
Вы не можете голосовать в опросах
Вы не можете прикреплять файлы к сообщениям
Вы можете скачивать файлы