Что такое ризома? / Was ist ein Rizom? / What is a Rhizome? Kluge and Vogl on Deleuze and Guattari (Александр Клюге / Alexander Kluge) [2006, Германия, документальный, фильм-обсуждение, DVDRip] + Sub Rus + Original Ger


Статистика раздачи [Обновить пиров]
Размер:  39 MB   |    Зарегистрирован:  1 год 2 месяца   |    Скачан:  0 раз

Полного источника не было: Никогда

 
   
 
 
 

[Цитировать]

Что такое ризома? / Was ist ein Rizom? / What is a Rhizome? Kluge and Vogl on Deleuze and Guattari
Страна: Германия
Жанр: документальный, фильм-обсуждение
Год выпуска: 2006
Продолжительность: 00:14:58
Перевод: Субтитры
Cубтитры: русские
Оригинальная аудиодорожка: немецкий
Режиссер: Александр Клюге / Alexander Kluge
В ролях: Александр Клюге/Alexander Kluge, Йозеф Фогль/Joseph Vogl
Описание: Александ Клюге интервьюирует Йозефа Фогля, автора, философа, переводчика Делёза, спрашивая его о важном концепте совместной философии Феликса Гваттари и Жиля Делёза – о ризоме.
Доп. информация: Перевод – daft-digger, сверка с немецкой речью – rizonomad, подготовка субтитров – alex-kin.
Файл взят с Карагарги – благодарим marx.
Сэмпл: http://multi-up.com/962324
Качество видео: DVDRip
Формат видео: AVI
Видео: DivX Codec 5.x or 6.x at 251 kbps, 0.05 bit/pixel, 512x384 (1.33:1) at 25 fps
Аудио: MPEG Layer 3 at 96.00 kbps, 2 ch, 44.100 kHz
Формат субтитров: softsub (SRT)

MediaInfo

Формат : AVI
Формат/Информация : Audio Video Interleave
Размер файла : 38,6 Мбайт
Продолжительность : 14 м.
Общий поток : 360 Кбит/сек
Программа кодирования : transcode-1.0.2
Библиотека кодирования : VirtualDub build 30586/release
Видео
Идентификатор : 0
Формат : MPEG-4 Visual
Профиль формата : Simple@L1
Параметр BVOP формата : Нет
Параметр QPel формата : Нет
Параметр GMC формата : Без точки перехода
Параметр матрицы формата : Default (H.263)
Идентификатор кодека : DX50
Идентификатор кодека/Подсказка : DivX 5
Продолжительность : 14 м.
Битрейт : 252 Кбит/сек
Ширина : 512 пикс.
Высота : 384 пикс.
Соотношение сторон : 4:3
Частота кадров : 25,000 кадр/сек
Цветовое пространство : YUV
Подвыборка цветности : 4:2:0
Битовая глубина : 8 бит
Тип развёртки : Прогрессивная
Метод сжатия : С потерями
Бит/(Пиксели*Кадры) : 0.051
Размер потока : 27,0 Мбайт (70%)
Библиотека кодирования : Lavc51.34.0
Аудио
Идентификатор : 1
Формат : MPEG Audio
Версия формата : Version 1
Профиль формата : Layer 3
Режим : Joint stereo
Расширение режима : MS Stereo
Идентификатор кодека : 55
Идентификатор кодека/Подсказка : MP3
Продолжительность : 14 м.
Вид битрейта : Постоянный
Битрейт : 96,0 Кбит/сек
Канал(ы) : 2 канала(ов)
Частота : 44,1 КГц
Метод сжатия : С потерями
Размер потока : 10,3 Мбайт (27%)
Выравнивание : Соединение по промежуткам
Продолжительность промежутка : 26 мс. (0,65 видеокадр)
Время предзагрузки промежутка : 522 ms

Фрагмент субтитров

117
00:05:57,863 --> 00:06:00,927
Это ботанический термин,
118
00:06:01,047 --> 00:06:03,583
он значит "корневище".
119
00:06:05,379 --> 00:06:08,101
Часть растения, находящаяся
под поверхностью земли,
120
00:06:09,042 --> 00:06:11,621
занимающаяся обменом веществ,
121
00:06:11,887 --> 00:06:15,180
обменом, почти неразличимым,
так сказать,
122
00:06:16,462 --> 00:06:19,491
прямо в грунте.
123
00:06:22,391 --> 00:06:24,757
Но это не то же самое,
что удерживает растение в почве?
124
00:06:24,877 --> 00:06:26,154
Нет.
125
00:06:29,902 --> 00:06:32,310
В любом случае,
в концепции Делеза и Гваттари,
126
00:06:32,430 --> 00:06:35,624
оно не представляет собой
этот сгусток,
127
00:06:35,744 --> 00:06:37,562
который становится единым стволом,
128
00:06:37,682 --> 00:06:39,301
извергающимся из земли,
129
00:06:39,421 --> 00:06:41,881
дабы завершить модель дерева.
130
00:06:42,001 --> 00:06:43,220
Вовсе нет.
131
00:06:43,340 --> 00:06:47,382
Суть ризомы в том,
что она остается под землей,
132
00:06:47,666 --> 00:06:49,747
таким образом,
133
00:06:49,867 --> 00:06:52,184
она существует во множественных
процессах обмена веществ.
134
00:06:52,304 --> 00:06:53,552
Благодаря своей среде
135
00:06:53,672 --> 00:06:55,590
и, в некотором смысле, тому,
136
00:06:55,710 --> 00:06:59,477
что для нее характерна
внутренняя бесконечность.
137
00:07:00,272 --> 00:07:03,507
Но применимо ли здесь
слово сцепление?

Скриншот c названием фильма

Скриншоты

[teatrix.ru].t4420.torrent 
Торрент: Зарегистрирован [ 2015-10-08 00:27 ] · 2D85493F3B8178600BB2DD978F499E983ADB7B1E

Скачать .torrent

Скачать

13 KB

Статус: проверено
Скачан: 0 раз
Размер: 39 MB
terms.php



Быстрый ответ

Имя:

      
Для отправки сообщений необходимо включить JavaScript
Показать сообщения:    

Текущее время: 08-Дек 23:13

Часовой пояс: UTC + 3


Вы можете начинать темы
Вы можете отвечать на сообщения
Вы не можете редактировать свои сообщения
Вы не можете удалять свои сообщения
Вы не можете голосовать в опросах
Вы не можете прикреплять файлы к сообщениям
Вы можете скачивать файлы