Кино и смерть / Das Kino und der Tod / Cinema and Death (Хартмут Битомски / Hartmut Bitomsky) [1991, Германия, видеоэссе, DVDRip] + Sub Rus + Original Ger


Статистика раздачи [Обновить пиров]
Размер:  569 MB   |    Зарегистрирован:  1 год 1 месяц   |    Скачан:  0 раз

Полного источника не было: Никогда

 
   
 
 
 

[Цитировать]

Кино и смерть / Das Kino und der Tod / Cinema and Death
Страна: Германия
Жанр: видеоэссе
Год выпуска: 1991
Продолжительность: 00:46:27
Перевод: Субтитры
Cубтитры: русские
Оригинальная аудиодорожка: немецкий
Режиссер: Хартмут Битомски / Hartmut Bitomsky
В ролях: Хартмут Битомски / Hartmut Bitomsky
Описание: Завораживающий голос Битомски и движения рук, перебирающие фотографии самых знаменитых сцен убийств в кино. Фильм, анализирующий жанр нуар. Фильм, сам становящийся нуаром. Битомски рассказывает о классических лентах и листает фотографии словно детектив, рассматривающий улики с места преступления. А в памяти зрителя ворочаются смутные воспоминания виденных ранее образов, открываемых теперь заново – в неподвижности.
Битомски о фильме:
Мне хотелось снять фильм, где не было бы ничего, кроме меня самого, произносящего речь перед камерой и фотографий, взятых из фильмов. Никаких киноотрывков, никаких отступлений.
Это видеофильм. В нем пересекаются два дискурса: фотографии, каждая из которых связана с убийством и умиранием, и произносимая мною речь. Почему кино нуждается в смерти? Почему именно смерть, хотя кино и не может показать ее? Едва ли найдется такой фильм, в котором бы хоть кто-нибудь да не умирал, не приносился в жертву истории. Кажется, что кино навязчиво поглощено смертью, убийством, умиранием.
Можно сказать, что смерть - аксиома кинематографа. О фильме и фотографии нередко говорят как о посредниках смерти. Базен называл их "покровом реальности". Он писал: "Фотография обволакивает собою событие подобно тому как посмертная маска огибает черты усопшего".
Этот видеофильм открывает серию работ, которую я называю "Антологией кино". Тема этой серии - кинематограф, история кино, профессия, с которой я связан. Другие фильмы серии: "Кино, ветер и фотография", "Кино, поверхность, бункер" и "Воспроизведение" (Playback).
Доп. информация: Присутствуют вшитые английские субтитры. Русские субтитры даны в двух форматах - обычном .srt и перекрывающем английские надписи черной рамкой (.ass).
Файл взят с karagarga. Перевод - bagrien.
Сэмпл: http://multi-up.com/958968
Качество видео: DVDRip
Формат видео: AVI
Видео: XviD, 640x480 (4:3), 25.000 fps, 1566 kbps
Аудио: MP3, 48.0 Khz, 132 kbps, 2 channels
Формат субтитров: softsub (SSA/ASS)

MediaInfo

General
Format : AVI
Format/Info : Audio Video Interleave
File size : 569 MiB
Duration : 46mn 27s
Overall bit rate mode : Variable
Overall bit rate : 1 712 Kbps
Writing application : VirtualDubMod 1.5.10.2 (build 2540/release)
Writing library : VirtualDub build 29963/release
Video
ID : 0
Format : MPEG-4 Visual
Format profile : Advanced Simple@L5
Format settings, BVOP : 1
Format settings, QPel : No
Format settings, GMC : No warppoints
Format settings, Matrix : Default (MPEG)
Codec ID : XVID
Codec ID/Hint : XviD
Duration : 46mn 27s
Bit rate : 1 566 Kbps
Width : 640 pixels
Height : 480 pixels
Display aspect ratio : 4:3
Frame rate : 25.000 fps
Color space : YUV
Chroma subsampling : 4:2:0
Bit depth : 8 bits
Scan type : Progressive
Compression mode : Lossy
Bits/(Pixel*Frame) : 0.204
Stream size : 521 MiB (92%)
Writing library : XviD 1.1.2 (UTC 2006-11-01)
Audio
ID : 1
Format : MPEG Audio
Format version : Version 1
Format profile : Layer 3
Mode : Joint stereo
Mode extension : MS Stereo
Codec ID : 55
Codec ID/Hint : MP3
Duration : 46mn 27s
Bit rate mode : Variable
Bit rate : 132 Kbps
Channel(s) : 2 channels
Sampling rate : 48.0 KHz
Compression mode : Lossy
Stream size : 44.0 MiB (8%)
Alignment : Aligned on interleaves
Interleave, duration : 24 ms (0.60 video frame)
Interleave, preload duration : 457 ms

Отрывок субтитров

366
00:25:43,800 --> 00:25:46,520
Есть два типа смерти в кино.
367
00:25:46,520 --> 00:25:50,960
За первым стоит судьба,
о которой повествует фильм.
368
00:25:50,960 --> 00:25:54,520
Второй тип безымянный и безликий.
369
00:25:54,960 --> 00:25:57,680
Это числа, отражающие размеры потерь.
370
00:25:58,600 --> 00:26:02,360
"Резня" Гриффита
работает с обоими типами.
371
00:26:03,680 --> 00:26:06,480
Отряд переживает нападение индейцев.
372
00:26:06,480 --> 00:26:10,680
Люди сбиваются в кучу,
индейцы скачут вокруг них.
373
00:26:11,640 --> 00:26:15,160
Крупный план:
среди обороняющихся два игрока.
374
00:26:15,720 --> 00:26:19,000
Женщина с ребенком.
375
00:26:19,000 --> 00:26:22,200
Игрок и священник.
376
00:26:24,600 --> 00:26:28,600
Один из игроков ранен,
карты высыпаются из его руки.
377
00:26:31,040 --> 00:26:34,880
Мертвые тела образуют вал
для тех, кто еще жив.
378
00:26:34,880 --> 00:26:39,160
Вал вырастает все выше,
число выживших сокращается.
379
00:26:39,840 --> 00:26:42,400
К концу в живых не остается никого;
380
00:26:42,400 --> 00:26:46,720
иначе бы это не стало трагедией.
381
00:26:46,720 --> 00:26:51,360
Подмога прибывает слишком
поздно. Но не совсем.
382
00:26:51,840 --> 00:26:55,360
Из груды тел тянется рука.
383
00:26:55,840 --> 00:26:58,760
Это рука той женщины с ребенком.
384
00:27:01,600 --> 00:27:03,320
"Что самое угнетающее
385
00:27:03,320 --> 00:27:05,920
в этом массовом отходе к смерти,
386
00:27:05,920 --> 00:27:08,280
так это совершенная
нейтральность действа.

Скриншот c названием фильма

Скриншоты

[teatrix.ru].t4421.torrent 
Торрент: Зарегистрирован [ 2015-10-08 00:27 ] · 7F09F0DD84D352312268CD4399B314FC8205B8DB

Скачать .torrent

Скачать

12 KB

Статус: проверено
Скачан: 0 раз
Размер: 569 MB
terms.php



Быстрый ответ

Имя:

      
Для отправки сообщений необходимо включить JavaScript
Показать сообщения:    

Текущее время: 03-Дек 05:26

Часовой пояс: UTC + 3


Вы можете начинать темы
Вы можете отвечать на сообщения
Вы не можете редактировать свои сообщения
Вы не можете удалять свои сообщения
Вы не можете голосовать в опросах
Вы не можете прикреплять файлы к сообщениям
Вы можете скачивать файлы