Голова-ластик: фильм о фильме / Eraserhead Stories: Full Documentary (Дэвид Линч / David Lynch) [2001, США, Документальный, WEBRip] (euph0xx) + Sub Rus + Original Eng


Статистика раздачи [Обновить пиров]
Размер:  208 MB   |    Зарегистрирован:  1 год 3 месяца   |    Скачан:  0 раз

Полного источника не было: Никогда

 
   
 
 
 

[Цитировать]

"Голова-ластик": фильм о фильме / Eraserhead Stories: Full Documentary
Страна: США
Жанр: Документальный
Год выпуска: 2001
Продолжительность: 01:24:55
Перевод: Субтитры euph0xx
Cубтитры: русские
Оригинальная аудиодорожка: английский
Режиссер: Дэвид Линч/David Lynch
В ролях: Дэвид Линч, Кэтрин Коулсон, Джек Нэнс
Описание: В этом документальном фильме Дэвид Линч рассказывает о создании своего первого полнометражного фильма - "Голова-ластик" (1977).
Качество видео: WEBRip
Формат видео: MP4
Видео: MPEG4 Video (H264) 496x360 29.97fps 268kbps [V: h264 constrained baseline L3.0, yuv420p, 496x360, 268 kb/s]
Аудио: AAC 44100Hz mono 72kbps
Формат субтитров: softsub (SRT)

MediaInfo

General
Complete name : Z:\movies\DAVID LYNCH Eraserhead Stories (Full Documentary)\DAVID LYNCH Eraserhead Stories (Full Documentary).mp4
Format : MPEG-4
Format profile : Base Media / Version 2
Codec ID : mp42
File size : 208 MiB
Duration : 1h 24mn
Overall bit rate mode : Variable
Overall bit rate : 343 Kbps
Encoded date : UTC 2013-12-01 03:47:29
Tagged date : UTC 2013-12-01 03:47:29
gsst : 0
gstd : 5095966
gssd : B4A7DADC5MH1393268293816807
gshh : r17---sn-4g57knde.googlevideo.com
Video
ID : 1
Format : AVC
Format/Info : Advanced Video Codec
Format profile : Baseline@L3.0
Format settings, CABAC : No
Format settings, ReFrames : 1 frame
Codec ID : avc1
Codec ID/Info : Advanced Video Coding
Duration : 1h 24mn
Bit rate : 268 Kbps
Maximum bit rate : 1 806 Kbps
Width : 496 pixels
Height : 360 pixels
Display aspect ratio : 1.378
Frame rate mode : Constant
Frame rate : 29.970 fps
Color space : YUV
Chroma subsampling : 4:2:0
Bit depth : 8 bits
Scan type : Progressive
Bits/(Pixel*Frame) : 0.050
Stream size : 163 MiB (78%)
Tagged date : UTC 2013-12-01 03:49:08
Audio
ID : 2
Format : AAC
Format/Info : Advanced Audio Codec
Format profile : LC
Codec ID : 40
Duration : 1h 24mn
Bit rate mode : Variable
Bit rate : 72.0 Kbps
Maximum bit rate : 76.2 Kbps
Channel(s) : 1 channel
Channel positions : Front: C
Sampling rate : 44.1 KHz
Compression mode : Lossy
Stream size : 43.7 MiB (21%)
Title : IsoMedia File Produced by Google, 5-11-2011
Encoded date : UTC 2013-12-01 03:48:21
Tagged date : UTC 2013-12-01 03:49:08

Скриншот c названием фильма

Скриншоты



[teatrix.ru].t4423.torrent 
Торрент: Зарегистрирован [ 2015-10-08 00:27 ] · 0267A1170F3A44770C39FC92CEC036D5069919FB

Скачать .torrent

Скачать

17 KB

Статус: проверено
Скачан: 0 раз
Размер: 208 MB
terms.php



Быстрый ответ

Имя:

      
Для отправки сообщений необходимо включить JavaScript
Показать сообщения:    

Текущее время: 19-Янв 16:05

Часовой пояс: UTC + 3


Вы можете начинать темы
Вы можете отвечать на сообщения
Вы не можете редактировать свои сообщения
Вы не можете удалять свои сообщения
Вы не можете голосовать в опросах
Вы не можете прикреплять файлы к сообщениям
Вы можете скачивать файлы