Ингмар Бергман снимает фильм / Ingmar Bergman gor en film / Ingmar Bergman Makes a Movie (Вильгот Шёман / Vilgot Sjöman) [1963, Швеция, Документальный, DVD9 (Custom)] + Sub Rus(Mamop), Eng + Original Swe / Criterion Collection#212


Статистика раздачи [Обновить пиров]
Размер:  7.06 GB   |    Зарегистрирован:  1 год 2 месяца   |    Скачан:  0 раз

Полного источника не было: Никогда

 
   
 
 
 

[Цитировать]

Ингмар Бергман снимает фильм / Ingmar Bergman gor en film / Ingmar Bergman Makes a Movie / Criterion Collection#212
Страна:Швеция
Студия:Sveriges Radio
Жанр:Документальный
Год выпуска:1963
Продолжительность:00:39:26+00:29:43+00:30:01+00:25:00+00:22:59
Производитель:The Criterion Collection #212
Перевод : Субтитры
Cубтитры:Русские-Mamop, Английские
Оригинальная аудиодорожка:Шведский
Режиссер:Вильгот Шёман / Vilgot Sjoman
Оператор:Мак Альберг
В ролях:Ингмар Бергман, Гуннар Бьёрнстранд, Свен Нюквист, Вильгот Шёман, Макс фон Сюдов, Ингрид Тулин
Описание:Фильм является уникальной возможностью посмотреть на Ингмара Бергмана за работой. Шёман вместе с командой шведских телевизионщиков фиксируют весь процесс создания фильма от сценария до премьеры.
Доп. информация:Софт:PGCDemux (извлечение).
DVD-lab PRO 2, Subtitle Workshop (субтитры).
MuxMan (сборка). DvdReMakePro (финал).Исходник предоставлен - Wolstep.Наводка - romario1975.Русские субтитры - Mamop.Реавторинг Нордер.
Огромное Спасибо Всем, без чьей помощи этот релиз не состоялся бы!Бонусы:Нет.Меню:Английский, анимированное, озвученное.

Сэмпл:http://multi-up.com/955848
Тип релиза:DVD9 (Custom)
Контейнер:DVD-Video
Видео:NTSC 4:3 (720x480) VBR, 7481 Кбит/сек, 29,970 кадров/сек
Аудио :Шведский: AC3, 1 ch, 48.0 KHz, 192 Кбит/сек (Оригинал)Формат субтитров:prerendered (DVD/IDX+SUB)
Шёман, Вильгот-http://ru.wikipedia.org/wiki/%D0%A8%D1%91%D0%BC%D0%...0%B3%D0%BE%D1%82 . Фильм-http://en.wikipedia.org/wiki/Ingmar_Bergman_Makes_a_MovieDvd Info">

Это интересноШёман, Вильгот-http://ru.wikipedia.org/wiki/%D0%A8%D1%91%D0%BC%D0%...0%B3%D0%BE%D1%82 . Фильм-http://en.wikipedia.org/wiki/Ingmar_Bergman_Makes_a_MovieDvd Info


Title: Ingmar Bergman Makes a Movie DVD-9_Custom_Criterion_#212
Size: 7.06 Gb ( 7 407 508,00 KBytes ) - DVD-9
Enabled regions: 1, 2, 3, 4, 5, 6, 7, 8
VTS_01 :
Play Length: 00:00:02
Video: NTSC 4:3 (720x480) VBR
VTS_02 :
Play Length: 00:00:20
Video: NTSC 4:3 (720x480) VBR
VTS_03 :
Play Length: 00:39:26+{00:39:26}+{00:39:26}+{00:39:26}
Video: NTSC 4:3 (720x480) VBR
Audio:
Svenska, AC3, 1/0 (C) ch, 192 kbps, Delay 0 mSec
Subtitles:
Russian
English
VTS_04 :
Play Length: 00:29:43+{00:29:43}+{00:29:43}+{00:29:43}
Video: NTSC 4:3 (720x480) VBR
Audio:
Svenska, AC3, 1/0 (C) ch, 192 kbps, Delay 0 mSec
Subtitles:
Russian
English
VTS_05 :
Play Length: 00:30:01+{00:30:01}+{00:30:01}+{00:30:01}
Video: NTSC 4:3 (720x480) VBR
Audio:
Svenska, AC3, 1/0 (C) ch, 192 kbps, Delay 0 mSec
Subtitles:
Russian
English
VTS_06 :
Play Length: 00:25:00+{00:25:00}+{00:25:00}+{00:25:00}
Video: NTSC 4:3 (720x480) VBR
Audio:
Svenska, AC3, 1/0 (C) ch, 192 kbps, Delay 0 mSec
Subtitles:
Russian
English
VTS_07 :
Play Length: 00:22:59+{00:22:59}+{00:22:59}+{00:22:59}
Video: NTSC 4:3 (720x480) VBR
Audio:
Svenska, AC3, 1/0 (C) ch, 192 kbps, Delay 0 mSec
Subtitles:
Russian
English

MediaInfo

Общее
Полное имя :F:\Ingmar Bergman Makes a Movie DVD-9_Custom_Criterion_#212\VIDEO_TS\VTS_03_1.VOB
Формат : MPEG-PS
Размер файла : 1024 Мбайт
Продолжительность : 18 м.
Режим общего битрейта : Переменный
Общий поток : 7829 Кбит/сек
Видео
Идентификатор : 224 (0xE0)
Формат : MPEG Video
Версия формата : Version 2
Профиль формата : Main@Main
Параметр BVOP формата : Да
Параметр матрицы формата : Выборочная
Параметр GOP формата : M=3, N=15
Продолжительность : 18 м.
Вид битрейта : Переменный
Битрейт : 7481 Кбит/сек
Максимальный битрейт : 9608 Кбит/сек
Ширина : 720 пикселей
Высота : 480 пикселей
Соотношение сторон : 4:3
Частота кадров : 29,970 кадров/сек
Стандарт вещания : NTSC
Цветовое пространство : YUV
Субдискретизация насыщенности : 4:2:0
Битовая глубина : 8 бит
Метод сжатия : С потерями
Бит/(Пиксели*Кадры) : 0.722
Временной код первого кадра : 00:59:39:29
Оригинал временного кода : Group of pictures header
Размер потока : 979 Мбайт (96%)
Аудио
Идентификатор : 189 (0xBD)-128 (0x80)
Формат : AC-3
Формат/Информация : Audio Coding 3
Расширение режима : CM (complete main)
Параметр Endianness формата : Big
Режим смешивания : DVD-Video
Продолжительность : 18 м.
Вид битрейта : Постоянный
Битрейт : 192 Кбит/сек
Каналы : 1 канал
Расположение каналов : Front: C
Частота : 48,0 КГц
Битовая глубина : 16 бит
Метод сжатия : С потерями
Размер потока : 25,1 Мбайт (2%)
Текст #1
Идентификатор : 189 (0xBD)-32 (0x20)
Формат : RLE
Формат/Информация : Run-length encoding
Режим смешивания : DVD-Video
Текст #2
Идентификатор : 189 (0xBD)-33 (0x21)
Формат : RLE
Формат/Информация : Run-length encoding
Режим смешивания : DVD-Video

Скриншоты меню

Скриншоты

Полиграфия

[teatrix.ru].t4426.torrent 
Торрент: Зарегистрирован [ 2015-10-08 00:27 ] · 2F1811B2E5329CABBFF07881AA11C8CC66C96789

Скачать .torrent

Скачать

38 KB

Статус: проверено
Скачан: 0 раз
Размер: 7.06 GB
terms.php



Быстрый ответ

Имя:

      
Для отправки сообщений необходимо включить JavaScript
Показать сообщения:    

Текущее время: 08-Дек 09:04

Часовой пояс: UTC + 3


Вы можете начинать темы
Вы можете отвечать на сообщения
Вы не можете редактировать свои сообщения
Вы не можете удалять свои сообщения
Вы не можете голосовать в опросах
Вы не можете прикреплять файлы к сообщениям
Вы можете скачивать файлы