Кто боится Ай Вэйвэя? / Who's Afraid of Ai Weiwei? (Элисон Клэйман / Alison Klayman) [2011, США, документальный, концептуальное искусство, DVB] DVO (Селена Интернейшнл)


Статистика раздачи [Обновить пиров]
Размер:  395 MB   |    Зарегистрирован:  1 год 2 месяца   |    Скачан:  0 раз

Полного источника не было: Никогда

 
   
 
 
 

[Цитировать]

Кто боится Ай Вэйвэя?
Who's Afraid of Ai Weiwei?- Страна: США
Жанр: документальный, концептуальное искусство
Год выпуска: 2011
Продолжительность: 00:18:00Перевод: Профессиональный (двухголосый закадровый) (Кинокомпания "Селена Интернейшнл" по заказу канала "24ДОК")
Cубтитры: нет
Оригинальная аудиодорожка: нет
Режиссер: Элисон Клэйман / Alison Klayman
В ролях: Ай Вэйвэй / Ai Weiwei
Описание: Ай Вэйвэй — самый известный китайский современный художник, "пекинский Энди Уорхол" и хулиган, создавший себе имя и репутацию не только выставками в Tate Modern, но и открытым противодействием китайским властям. Действующий в условиях строгой цензуры и бесчеловечного законодательства, Ай продолжает творить и сплачивать людей с помощью своего искусства и социальных сетей. В ответ на это китайские власти закрыли его блог, избили, снесли бульдозером его недавно построенную студию и многое другое. (анонс канала "24ДОК")
Доп. информация: "24ДОК"
http://www.imdb.com/title/tt1876865/
Сэмпл: http://www.sendspace.com/file/uc31ya
Качество видео: DVB-S
Формат видео: MPEG-PS
Видео: MPEG Video 2, 720x576@768x576 (4:3), 25 fps, ~2810 kbps avg, 0.271 bit/pixel
Аудио: 48 kHz, MPEG Audio 2, 2 ch, ~192.00 kbps avg

MediaInfo

Полное имя : H:\My Torrents\[apreder]Who's_Afraid_of_Ai_Weiwei(2011)DVB.mpgФормат : MPEG-PSРазмер файла : 395 МбайтПродолжительность : 18 м.Режим общего битрейта : ПеременныйОбщий поток : 3063 Кбит/сек
ВидеоИдентификатор : 224 (0xE0)Формат : MPEG VideoВерсия формата : Version 2Профиль формата : Main@MainПараметр BVOP формата : ДаПараметр матрицы формата : ВыборочнаяПараметр GOP формата : VariableПродолжительность : 18 м.Вид битрейта : ПеременныйБитрейт : 2810 Кбит/секШирина : 720 пикселейВысота : 576 пикселейСоотношение сторон : 4:3Частота кадров : 25,000 кадров/секСтандарт вещания : PALЦветовое пространство : YUVСубдискретизация насыщенности : 4:2:0Битовая глубина : 8 битТип развёртки : ЧересстрочнаяПорядок развёртки : Верхнее поле первоеМетод сжатия : С потерямиБит/(Пиксели*Кадры) : 0.271Временной код первого кадра : 00:00:00:00Оригинал временного кода : Group of pictures headerРазмер потока : 362 Мбайт (92%)
АудиоИдентификатор : 192 (0xC0)Формат : MPEG AudioВерсия формата : Version 1Профиль формата : Layer 2Продолжительность : 18 м.Вид битрейта : ПостоянныйБитрейт : 192 Кбит/секКаналы : 2 каналаЧастота : 48,0 КГцМетод сжатия : С потерямиРазмер потока : 24,8 Мбайт (6%)

Скриншот c названием фильма

Скриншоты

Резервные скриншоты

-1'199/1'180√[-4]
[teatrix.ru].t4427.torrent 
Торрент: Зарегистрирован [ 2015-10-08 00:27 ] · 3789F5EE48E0825EBD4B2E470932659CA9AEA154

Скачать .torrent

Скачать

16 KB

Статус: проверено
Скачан: 0 раз
Размер: 395 MB
terms.php



Быстрый ответ

Имя:

      
Для отправки сообщений необходимо включить JavaScript
Показать сообщения:    

Текущее время: 09-Дек 18:30

Часовой пояс: UTC + 3


Вы можете начинать темы
Вы можете отвечать на сообщения
Вы не можете редактировать свои сообщения
Вы не можете удалять свои сообщения
Вы не можете голосовать в опросах
Вы не можете прикреплять файлы к сообщениям
Вы можете скачивать файлы