День боя / Day of the Fight (Стэнли Кубрик / Stanley Kubrick) [1951, США, короткометражка, документальный, спорт, BDRemux 1080p] SUB (rus, eng)


Статистика раздачи [Обновить пиров]
Размер:  2.75 GB   |    Зарегистрирован:  1 год 2 месяца   |    Скачан:  0 раз

Полного источника не было: Никогда

 
   
 
 
 

[Цитировать]

День боя
Day of the Fight
Страна: США
Год выпуска: 1951
Жанр: короткометражка, документальный, спорт
Продолжительность: 00:12:35
Перевод: Субтитры - Ariobarzan
русские субтитры: есть
Оригинальная аудиодорожка: английская-Режиссёр: Стэнли Кубрик : Stanley Kubrick
В главных ролях: Дуглас Эдвардс, Винсент Картье, Уолтер Картье, Нат Фляйшер, Бобби Джеймс, Стэнли Кубрик, Александр Сингер, Джуди Сингер-Описание: Главному герою фильма, Уолтеру Картиру, боксеру в среднем весе, предстоит сразиться на ринге. И собственно сам фильм повествует о дне его боя. Это самая первая работа Кубрика в качестве режиссера.- -Качество: BDRemux 1080p
Формат: MKV
Видео кодек: AVC
Аудио кодек: AC3
Видео: 1440x1080, 23.976 fps, ~30,5 Мbps avg, 0.817 bit/pixel
Аудио: 48 kHz, AC3 Dolby Digital, 2/0 (L,R) ch, ~192 kbps
субтитры: русские, английские
субтитры">

скриншоты субтитры


1
00:00:01,340 --> 00:00:06,500
ДЕНЬ СХВАТКИ
2
00:00:39,790 --> 00:00:43,590
Эта история о схватке и о боксере,
Уолтере Картире
3
00:00:45,760 --> 00:00:47,700
Сегодня поединок
4
00:00:47,780 --> 00:00:51,630
Сегодня в десять вечера для Уолтера настанет момент истины
5
00:00:57,000 --> 00:01:00,940
В шесть утра дня схватки для Уолтера началось
самое тяжелое в жизни боксера
6
00:01:01,370 --> 00:01:02,670
ожидание
7
00:01:03,790 --> 00:01:07,180
Уолтер лежит справа от своего
брата-близнеца Винсента
8
00:01:07,500 --> 00:01:11,630
Уолтер предпочел бы тяжелые
ежедневные тренировки
и четырехмильные кроссы
9
00:01:11,820 --> 00:01:14,150
томительному ожиданию
10
00:01:15,220 --> 00:01:18,490
Уолтер знает что каждый новый бой
для него гораздо важнее предыдущего

MediaInfo

Общее
Уникальный идентификатор : 174770014473885461532786207224570776142 (0x837B7AFD2C7A16BD95991BC1A3530A4E)
Полное имя : C:\Users\Miss Cherrie\Desktop\День схватки\Day of the Fight.1951.BDRemux 1080p.mkv
Формат : Matroska
Версия формата : Version 4 / Version 2
Размер файла : 2,75 Гбайт
Продолжительность : 12 м.
Общий поток : 31,3 Мбит/сек
Дата кодирования : UTC 2014-02-13 12:03:48
Программа кодирования : mkvmerge v6.7.0 ('Back to the Ground') 32bit built on Jan 8 2014 15:03:17
Библиотека кодирования : libebml v1.3.0 + libmatroska v1.4.1
Видео
Идентификатор : 1
Формат : AVC
Формат/Информация : Advanced Video Codec
Профиль формата : High@L4.1
Параметр CABAC формата : Да
Параметр ReFrames формата : 4 кадра
Идентификатор кодека : V_MPEG4/ISO/AVC
Продолжительность : 12 м.
Вид битрейта : Постоянный
Битрейт : 30,5 Мбит/сек
Номинальный битрейт : 35,0 Мбит/сек
Ширина : 1440 пикселей
Высота : 1080 пикселей
Соотношение сторон : 16:9
Режим частоты кадров : Постоянный
Частота кадров : 23,976 кадра/сек
Стандарт вещания : NTSC
Цветовое пространство : YUV
Субдискретизация насыщенности : 4:2:0
Битовая глубина : 8 бит
Тип развёртки : Прогрессивная
Бит/(Пиксели*Кадры) : 0.817
Размер потока : 2,68 Гбайт (97%)
Язык : English
Default : Да
Forced : Нет
Основные цвета : BT.709
Характеристики трансфера : BT.709
Коэффициенты матрицы : BT.709
Аудио
Идентификатор : 2
Формат : AC-3
Формат/Информация : Audio Coding 3
Расширение режима : CM (complete main)
Параметр Endianness формата : Big
Идентификатор кодека : A_AC3
Продолжительность : 12 м.
Вид битрейта : Постоянный
Битрейт : 192 Кбит/сек
Каналы : 2 канала
Расположение каналов : Front: L R
Частота : 48,0 КГц
Битовая глубина : 16 бит
Метод сжатия : С потерями
Размер потока : 17,3 Мбайт (1%)
Заголовок : ENG
Язык : English
Default : Да
Forced : Нет
Текст #1
Идентификатор : 3
Формат : UTF-8
Идентификатор кодека : S_TEXT/UTF8
Идентификатор кодека/Информация : UTF-8 Plain Text
Заголовок : Rus Sub
Язык : Russian
Default : Да
Forced : Нет
Текст #2
Идентификатор : 4
Формат : UTF-8
Идентификатор кодека : S_TEXT/UTF8
Идентификатор кодека/Информация : UTF-8 Plain Text
Заголовок : Eng Sub
Язык : English
Default : Нет
Forced : Нет
____________________________________________
Стою на раздаче до 5 дней.
Просьба скачавшим как можно дольше не покидать раздачу!
ВСЕМ ПРИЯТНОГО ПРОСМОТРА!_________________________________________
[teatrix.ru].t4429.torrent 
Торрент: Зарегистрирован [ 2015-10-08 00:27 ] · C0A2F9E553402A28AC81C665188287E71896994B

Скачать .torrent

Скачать

14 KB

Статус: проверено
Скачан: 0 раз
Размер: 2.75 GB
terms.php



Быстрый ответ

Имя:

      
Для отправки сообщений необходимо включить JavaScript
Показать сообщения:    

Текущее время: 09-Дек 20:26

Часовой пояс: UTC + 3


Вы можете начинать темы
Вы можете отвечать на сообщения
Вы не можете редактировать свои сообщения
Вы не можете удалять свои сообщения
Вы не можете голосовать в опросах
Вы не можете прикреплять файлы к сообщениям
Вы можете скачивать файлы