День боя / Day of the Fight (Стэнли Кубрик / Stanley Kubrick) [1951, США, короткометражка, документальный, спорт, BDRip] SUB (rus, eng)


Статистика раздачи [Обновить пиров]
Размер:  224 MB   |    Зарегистрирован:  1 год 1 месяц   |    Скачан:  0 раз

Полного источника не было: Никогда

 
   
 
 
 

[Цитировать]

День боя
Day of the Fight
Страна: США
Год выпуска: 1951
Жанр: короткометражка, документальный, спорт
Продолжительность: 00:12:35
Перевод: Субтитры - Ariobarzan
русские субтитры: есть
Оригинальная аудиодорожка: английская-Режиссёр: Стэнли Кубрик : Stanley Kubrick
В главных ролях: Дуглас Эдвардс, Винсент Картье, Уолтер Картье, Нат Фляйшер, Бобби Джеймс, Стэнли Кубрик, Александр Сингер, Джуди Сингер-Описание: Главному герою фильма, Уолтеру Картиру, боксеру в среднем весе, предстоит сразиться на ринге. И собственно сам фильм повествует о дне его боя. Это самая первая работа Кубрика в качестве режиссера.- -Качество: BDRip |BDRemux 1080p|
Формат: AVI
Видео кодек: XviD
Аудио кодек: AC3
Видео: 704x528, (1.33:1), 23.976 fps, XviD build 65 ~2285 kbps avg, 0.26 bit/pixel
Аудио: 48 kHz, AC3 Dolby Digital, 2/0 (L,R) ch, ~192 kbps
субтитры: русские, английские
субтитры">

скриншоты субтитры


1
00:00:01,340 --> 00:00:06,500
ДЕНЬ СХВАТКИ
2
00:00:39,790 --> 00:00:43,590
Эта история о схватке и о боксере,
Уолтере Картире
3
00:00:45,760 --> 00:00:47,700
Сегодня поединок
4
00:00:47,780 --> 00:00:51,630
Сегодня в десять вечера для Уолтера настанет момент истины
5
00:00:57,000 --> 00:01:00,940
В шесть утра дня схватки для Уолтера началось
самое тяжелое в жизни боксера
6
00:01:01,370 --> 00:01:02,670
ожидание
7
00:01:03,790 --> 00:01:07,180
Уолтер лежит справа от своего
брата-близнеца Винсента
8
00:01:07,500 --> 00:01:11,630
Уолтер предпочел бы тяжелые
ежедневные тренировки
и четырехмильные кроссы
9
00:01:11,820 --> 00:01:14,150
томительному ожиданию
10
00:01:15,220 --> 00:01:18,490
Уолтер знает что каждый новый бой
для него гораздо важнее предыдущего

MediaInfo

Общее
Полное имя : C:\День схватки\Day of the Fight.1951.BDRip [-Azureus-]\Day of the Fight.1951.BDRip.avi
Формат : AVI
Формат/Информация : Audio Video Interleave
Размер файла : 224 Мбайт
Продолжительность : 12 м.
Общий поток : 2487 Кбит/сек
Программа кодирования : VirtualDubMod 1.5.10.3 (build 2550/release)
Библиотека кодирования : VirtualDubMod build 2550/release
Видео
Идентификатор : 0
Формат : MPEG-4 Visual
Профиль формата : Advanced Simple@L5
Параметр BVOP формата : 2
Параметр QPel формата : Нет
Параметр GMC формата : Без точки перехода
Параметр матрицы формата : Выборочная
Идентификатор кодека : XVID
Идентификатор кодека/Подсказка : XviD
Продолжительность : 12 м.
Битрейт : 2285 Кбит/сек
Ширина : 704 пикселя
Высота : 528 пикселей
Соотношение сторон : 4:3
Частота кадров : 23,976 кадра/сек
Цветовое пространство : YUV
Субдискретизация насыщенности : 4:2:0
Битовая глубина : 8 бит
Тип развёртки : Прогрессивная
Метод сжатия : С потерями
Бит/(Пиксели*Кадры) : 0.256
Размер потока : 206 Мбайт (92%)
Библиотека кодирования : XviD 65
Аудио
Идентификатор : 1
Формат : AC-3
Формат/Информация : Audio Coding 3
Расширение режима : CM (complete main)
Параметр Endianness формата : Big
Идентификатор кодека : 2000
Продолжительность : 12 м.
Вид битрейта : Постоянный
Битрейт : 192 Кбит/сек
Каналы : 2 канала
Расположение каналов : Front: L R
Частота : 48,0 КГц
Битовая глубина : 16 бит
Метод сжатия : С потерями
Размер потока : 17,3 Мбайт (8%)
Выравнивание : Разделение по промежуткам
Продолжительность промежутка : 42 мс. (1,00 видеокадр)
Время предзагрузки промежутка : 500 мс.
____________________________________________
Стою на раздаче до 5 дней.
Просьба скачавшим как можно дольше не покидать раздачу!
ВСЕМ ПРИЯТНОГО ПРОСМОТРА!_________________________________________
[teatrix.ru].t4430.torrent 
Торрент: Зарегистрирован [ 2015-10-08 00:27 ] · 113F92DA312AF1D05087892D3EA6C3950435B3F1

Скачать .torrent

Скачать

18 KB

Статус: проверено
Скачан: 0 раз
Размер: 224 MB
terms.php



Быстрый ответ

Имя:

      
Для отправки сообщений необходимо включить JavaScript
Показать сообщения:    

Текущее время: 04-Дек 23:25

Часовой пояс: UTC + 3


Вы можете начинать темы
Вы можете отвечать на сообщения
Вы не можете редактировать свои сообщения
Вы не можете удалять свои сообщения
Вы не можете голосовать в опросах
Вы не можете прикреплять файлы к сообщениям
Вы можете скачивать файлы