Письмо / Letter (Сергей Лозница / Sergei Loznitsa) [2013, Россия, Нидерланды, короткий метр, документальный, BDRip-AVC] + Original Rus


Статистика раздачи [Обновить пиров]
Размер:  399 MB   |    Зарегистрирован:  1 год 2 месяца   |    Скачан:  0 раз

Полного источника не было: 4 месяца 27 дней

 
   
 
 
 

[Цитировать]

Письмо / Letter
Страна: Россия, Нидерланды
Жанр: короткий метр, документальный
Год выпуска: 2013
Продолжительность: 00:20:45
Перевод: Не требуется
Cубтитры: нет
Оригинальная аудиодорожка: русский
Режиссер: Сергей Лозница / Sergei Loznitsa
В ролях: простой и болезный народ
Описание: Документальный фильм Сергея Лозницы «Письмо» (Letter) – его рассказ о психиатрическом учреждении, расположенном в старом деревянном помещении в забытом богом уголке России.
Черно-белые кадры бесстрастно демонстрируют место обитания бессознательных заключенных. Современная цивилизация обошла стороной это место и его пациентов. Все, с чем здесь можно столкнуться, – это лишь нечеловеческий голос да приглушенная, подавляемая боль.
Доп. информация: Данный фильм шёл в качестве бонусного материала на blu-ray диске фильма "В тумане".
Сэмпл: http://multi-up.com/947697
Качество видео: BDRip-AVC
Формат видео: MKV
Видео: H264, 720x416, 25fps, 2345 kbps
Аудио: AC3, 48 kHz, stereo, 320 kbps

MediaInfo

General
Unique ID : 330132301638525987352088700414972921648 (0xF85D2B250320D403022AE4C8CF440730)
Complete name : F:\Письмо 2013.mkv
Format : Matroska
Format version : Version 2
File size : 399 MiB
Duration : 20mn 45s
Overall bit rate : 2 691 Kbps
Writing application : HandBrake 0.9.9
Writing library : libmkv 0.6.5
Video
ID : 1
Format : AVC
Format/Info : Advanced Video Codec
Format profile : Main@L4.0
Format settings, CABAC : Yes
Format settings, ReFrames : 4 frames
Codec ID : V_MPEG4/ISO/AVC
Duration : 20mn 45s
Bit rate : 2 345 Kbps
Width : 720 pixels
Height : 416 pixels
Display aspect ratio : 1.731
Frame rate mode : Constant
Frame rate : 25.000 fps
Color space : YUV
Chroma subsampling : 4:2:0
Bit depth : 8 bits
Scan type : Progressive
Bits/(Pixel*Frame) : 0.313
Stream size : 344 MiB (86%)
Writing library : x264 core 130 r2273 b3065e6
Encoding settings : cabac=1 / ref=1 / deblock=1:0:0 / analyse=0x1:0x111 / me=hex / subme=2 / psy=1 / psy_rd=1.00:0.00 / mixed_ref=0 / me_range=16 / chroma_me=1 / trellis=0 / 8x8dct=0 / cqm=0 / deadzone=21,11 / fast_pskip=1 / chroma_qp_offset=0 / threads=6 / lookahead_threads=2 / sliced_threads=0 / nr=0 / decimate=1 / interlaced=0 / bluray_compat=0 / constrained_intra=0 / bframes=3 / b_pyramid=2 / b_adapt=1 / b_bias=0 / direct=1 / weightb=1 / open_gop=0 / weightp=1 / keyint=250 / keyint_min=25 / scenecut=40 / intra_refresh=0 / rc_lookahead=10 / rc=abr / mbtree=1 / bitrate=2345 / ratetol=1.0 / qcomp=0.60 / qpmin=0 / qpmax=69 / qpstep=4 / vbv_maxrate=20000 / vbv_bufsize=25000 / nal_hrd=none / ip_ratio=1.40 / aq=1:1.00
Language : English
Default : Yes
Forced : No
Color primaries : BT.601 PAL
Transfer characteristics : BT.709
Matrix coefficients : BT.601
Audio
ID : 2
Format : AC-3
Format/Info : Audio Coding 3
Mode extension : CM (complete main)
Format settings, Endianness : Big
Codec ID : A_AC3
Duration : 20mn 45s
Bit rate mode : Constant
Bit rate : 320 Kbps
Channel count : 2 channels
Channel positions : Front: L R
Sampling rate : 48.0 KHz
Bit depth : 16 bits
Compression mode : Lossy
Stream size : 47.5 MiB (12%)
Default : Yes
Forced : No

Скриншот c названием фильма

Скриншоты

[teatrix.ru].t4432.torrent 
Торрент: Зарегистрирован [ 2015-10-08 00:27 ] · F936A79964C1E09FCB2668DA6E454A00EBC8A675

Скачать .torrent

Скачать

16 KB

Статус: проверено
Скачан: 0 раз
Размер: 399 MB
terms.php



Быстрый ответ

Имя:

      
Для отправки сообщений необходимо включить JavaScript
Показать сообщения:    

Текущее время: 11-Дек 01:28

Часовой пояс: UTC + 3


Вы можете начинать темы
Вы можете отвечать на сообщения
Вы не можете редактировать свои сообщения
Вы не можете удалять свои сообщения
Вы не можете голосовать в опросах
Вы не можете прикреплять файлы к сообщениям
Вы можете скачивать файлы