Бергман 101 / Bergman 101 (Питер Коуи / Peter Cowie) [2009, США, Документальный, DVDRip] AVO + Original


Статистика раздачи [Обновить пиров]
Размер:  643 MB   |    Зарегистрирован:  1 год 2 месяца   |    Скачан:  0 раз

Полного источника не было: Никогда

 
   
 
 
 

[Цитировать]

Бергман 101Bergman 101-- Страна: США
Жанр: Документальный
Год выпуска: 2009
Продолжительность: 0:35:23
Перевод: Авторский (одноголосый закадровый) (Ю. Медведев)
Cубтитры: нет
Оригинальная аудиодорожка: английский
Подборка материалов: Питер Коуи / Peter Cowie
Описание: Избранная видео-фильмография, отслеживающая режиссерскую карьеру Бергмана, с комментариями историка кино Питера Коуи.--Доп. информация: Спасибо rulle1 и Goldtwait за исходный DVD--Качество видео: DVDRip
Формат видео: AVI
Видео: XviD, 720х400 (16:9), 2143 Кбит/сек, 23,976 кадров/сек
Аудио: AC-3, 192 Кбит/сек, 1 канал, 48,0 КГц - AVO
Аудио 2: AC-3, 192 Кбит/сек, 1 канал, 48,0 КГц - Оригинал

MediaInfo

Общее
Полное имя : Бергман 101 (Bergman 101).avi
Формат : AVI
Формат/Информация : Audio Video Interleave
Размер файла : 643 Мбайт
Продолжительность : 35 м.
Общий поток : 2541 Кбит/сек
Программа кодирования : VirtualDubMod 1.5.10.3 | www.virtualdub-fr.org || (build 2550/release)
Библиотека кодирования : VirtualDubMod build 2550/release
Видео
Формат : MPEG-4 Visual
Профиль формата : Streaming Video@L1
Параметр BVOP формата : Да
Параметр QPel формата : Нет
Параметр GMC формата : Без точки перехода
Параметр матрицы формата : По умолчанию
Идентификатор кодека : XVID
Идентификатор кодека/Подсказка : XviD
Продолжительность : 35 м.
Битрейт : 2143 Кбит/сек
Ширина : 720 пикселей
Высота : 400 пикселей
Соотношение сторон : 16/9
Частота кадров : 23,976 кадров/сек
Разрешение : 24 бит
Колориметрия : 4:2:0
Тип развёртки : Прогрессивная
Бит/(Пиксели*Кадры) : 0.310
Размер потока : 543 Мбайт (84%)
Библиотека кодирования : XviD 73
Аудио #1
Формат : AC-3
Формат/Информация : Audio Coding 3
Идентификатор кодека : 2000
Продолжительность : 35 м.
Вид битрейта : Постоянный
Битрейт : 192 Кбит/сек
Каналы : 1 канал
Расположение каналов : C
Частота : 48,0 КГц
Размер потока : 48,6 Мбайт (8%)
Выравнивание : Разделение по промежуткам
Продолжительность промежутка : 42 мс. (1,00 видеокадр)
Время предзагрузки промежутка : 500 ms
Аудио #2
Формат : AC-3
Формат/Информация : Audio Coding 3
Идентификатор кодека : 2000
Продолжительность : 35 м.
Вид битрейта : Постоянный
Битрейт : 192 Кбит/сек
Каналы : 1 канал
Расположение каналов : C
Частота : 48,0 КГц
Размер потока : 48,6 Мбайт (8%)
Выравнивание : Разделение по промежуткам
Продолжительность промежутка : 42 мс. (1,00 видеокадр)
Время предзагрузки промежутка : 500 ms
[teatrix.ru].t4433.torrent 
Торрент: Зарегистрирован [ 2015-10-08 00:27 ] · 9BFB7A1049C51AAFF947BC7E7E56E49A5654C6D0

Скачать .torrent

Скачать

13 KB

Статус: проверено
Скачан: 0 раз
Размер: 643 MB
terms.php



Быстрый ответ

Имя:

      
Для отправки сообщений необходимо включить JavaScript
Показать сообщения:    

Текущее время: 10-Дек 13:48

Часовой пояс: UTC + 3


Вы можете начинать темы
Вы можете отвечать на сообщения
Вы не можете редактировать свои сообщения
Вы не можете удалять свои сообщения
Вы не можете голосовать в опросах
Вы не можете прикреплять файлы к сообщениям
Вы можете скачивать файлы