Остров Бергмана: Бергман и кино, Бергман и театр, Бергман и Форё / Bergman Island: Bergman och filmen, Bergman och teatern, Bergman och Fårö (Мари Нирерёд / Marie Nyreröd) [2004, Швеция, Документальный, DVDRip] [сокращённая версия] AVO


Статистика раздачи [Обновить пиров]
Размер:  1.45 GB   |    Зарегистрирован:  1 год 2 месяца   |    Скачан:  0 раз

Полного источника не было: Никогда

 
   
 
 
 

[Цитировать]

Остров Бергмана: Бергман и кино, Бергман и театр, Бергман и Форё / Bergman Island: Bergman och filmen, Bergman och teatern, Bergman och Fårö [сокращённая версия]-- Страна: Швеция
Жанр: Документальный
Год выпуска: 2004
Продолжительность: 1:23:27
Перевод: Авторский (одноголосый закадровый) (Ю. Медведев)
Cубтитры: нет
Оригинальная аудиодорожка: шведский
Режиссер: Мари Нирерёд / Marie Nyreröd
В ролях: Ингмар Бергман, Мари Нирерёд
Описание: За четыре года до смерти Ингмара Бергмана документалист Мари Нирерёд записала у него дома цикл интервью, в которых обсудила с легендарным режиссером проблематику важнейших его фильмов, его страхи, удачи и сожаления, неиссякаемые источники творческих поисков, отношения с религией и много других важных вопросов. Получившийся в результате фильм стал бесценным документом истории кино, поскольку впервые режиссер (который в последние годы вел затворническую жизнь) дал столь прямые и откровенные ответы на множество непростых вопросов. При всей своей глубине и сложности затрагиваемых вопросов, цикл интервью отнюдь не скучен, содержит немало интересных фактов из личной жизни Бергмана и историй о съемках, что позволяет создать живой и полноценный портрет режиссера и его эпохи. Легендарный режиссер-затворник предстал перед зрителями не "живым мертвецом" (каким его можно представить, исходя из растиражированного средствами информации образа), а блестящим рассказчиком, остроумным и находчивым собеседником, в чьих рассказах всегда найдется место шуткам и смеху (пусть и не без оттенков горечи и иронии).
Бергман всегда считал себя в первую очередь театральным режиссером и боялся, что в документальном фильме внимание распределится неравномерно с большим перевесом в пользу кино. В итоге весь отснятый для шведского ТВ материал был скомпонован не в один, а в три фильма: "Бергман и кино", "Бергман и театр" и "Бергман и Форё". Документальный цикл заинтересовал международных дистрибьюторов, но разнообразные фестивали и телеканалы в основном демонстрировали только два фильма из цикла, обойдя вниманием фильм "Бергман и театр". Тогда режиссер Мари Нирерёд при непосредственном участии самого Бергмана перемонтировала три фильма в один, сократив их приблизительно на 90 минут, в результате чего получилась представленная в данном издании 83-минутная версия картины "Остров Бергмана". Часть документальных материалов из фильмов "Бергман и кино", "Бергман и театр" и "Бергман и Форё" была включена (в качестве дополнительных материалов) в другие критерионовские издания фильмов Бергмана.--Доп. информация: Спасибо rulle1 и Goldtwait за исходный DVD--Качество видео: DVDRip
Формат видео: AVI
Видео: XviD, 688х384 (16:9), 2094 Кбит/сек, 23,976 кадров/сек
Аудио: AC-3, 192 Кбит/сек, 2 канала, 48,0 КГц - AVO
Аудио 2: AC-3, 192 Кбит/сек, 2 канала, 48,0 КГц - Оригинал

MediaInfo

Общее
Полное имя : Остров Бергмана (Bergman Island)\Остров Бергмана (Bergman Island).avi
Формат : AVI
Формат/Информация : Audio Video Interleave
Размер файла : 1488 Мбайт
Продолжительность : 1 ч. 23 м.
Общий поток : 2492 Кбит/сек
Программа кодирования : VirtualDubMod 1.5.10.3 | www.virtualdub-fr.org || (build 2550/release)
Библиотека кодирования : VirtualDubMod build 2550/release
Видео
Формат : MPEG-4 Visual
Профиль формата : Streaming Video@L1
Параметр BVOP формата : Да
Параметр QPel формата : Нет
Параметр GMC формата : Без точки перехода
Параметр матрицы формата : По умолчанию
Идентификатор кодека : XVID
Идентификатор кодека/Подсказка : XviD
Продолжительность : 1 ч. 23 м.
Битрейт : 2094 Кбит/сек
Ширина : 688 пикселей
Высота : 384 пикселей
Соотношение сторон : 16/9
Частота кадров : 23,976 кадров/сек
Разрешение : 24 бит
Колориметрия : 4:2:0
Тип развёртки : Прогрессивная
Бит/(Пиксели*Кадры) : 0.331
Размер потока : 1250 Мбайт (84%)
Библиотека кодирования : XviD 73
Аудио #1
Формат : AC-3
Формат/Информация : Audio Coding 3
Идентификатор кодека : 2000
Продолжительность : 1 ч. 23 м.
Вид битрейта : Постоянный
Битрейт : 192 Кбит/сек
Каналы : 2 канала
Расположение каналов : L R
Частота : 48,0 КГц
Размер потока : 115 Мбайт (8%)
Выравнивание : Разделение по промежуткам
Продолжительность промежутка : 42 мс. (1,00 видеокадр)
Время предзагрузки промежутка : 500 ms
Аудио #2
Формат : AC-3
Формат/Информация : Audio Coding 3
Идентификатор кодека : 2000
Продолжительность : 1 ч. 23 м.
Вид битрейта : Постоянный
Битрейт : 192 Кбит/сек
Каналы : 2 канала
Расположение каналов : L R
Частота : 48,0 КГц
Размер потока : 115 Мбайт (8%)
Выравнивание : Разделение по промежуткам
Продолжительность промежутка : 42 мс. (1,00 видеокадр)
Время предзагрузки промежутка : 500 ms
[teatrix.ru].t4434.torrent 
Торрент: Зарегистрирован [ 2015-10-08 00:27 ] · C86E110EA188B2C090E71405752BF3B0D13FC9BC

Скачать .torrent

Скачать

15 KB

Статус: проверено
Скачан: 0 раз
Размер: 1.45 GB
terms.php



Быстрый ответ

Имя:

      
Для отправки сообщений необходимо включить JavaScript
Показать сообщения:    

Текущее время: 09-Дек 20:25

Часовой пояс: UTC + 3


Вы можете начинать темы
Вы можете отвечать на сообщения
Вы не можете редактировать свои сообщения
Вы не можете удалять свои сообщения
Вы не можете голосовать в опросах
Вы не можете прикреплять файлы к сообщениям
Вы можете скачивать файлы